1 сезон

3 сезон

iTunes

1

iTunes

DUB Netflix

iTunes

13

1 сезон

RePack

30

Deluxe

pack

Легкие деньги

ВАЖНО

ИГРА 18+

pack

RePack

MK11

RePack

jed

RePack

fifa19

RePack

RDR2

RePack

NEED FOR SPEED™ PAYBACK

4 сезон

9 сезон

Бесстыжие 9 сезон

Все сериалы

все сериалы на PB.wtf

RePack

FAR CRY 5

Anonymous, добрый вечер, мы не успеваем до 1 числа собрать деньги на оплату серверов, помогите нам пожалуйста в это трудное время. В качестве благодарности мы отключим Вам всю рекламу на сайте (укажите свой ник в строку Ваше имя)!

×
  
Magnet ссылка

Уиджи. Проклятие доски дьявола / Ouija: Origin of Evil (Майк Флэнеган) [2016 г., Ужасы, триллер, WEB-DLRip, Дубляж iTunes] piratbit.org

Уиджи. Проклятие доски дьявола через торрент piratbit.org

Размер: 1.46 GB | Добавлен: 4 года 5 мес. назад | Торрент скачан:666 раз
Скачать  

05-01-2017 03:48 Уиджи. Проклятие доски дьявола Скачать торрент  

Уиджи. Проклятие доски дьявола / Ouija: Origin of Evil
Год выпуска: 2016
Страна: США,Япония
Жанр: Ужасы, триллер
Продолжительность: 01:38:54
Перевод: Дубляж iTunes
Субтитры: Отсутствуют.

Режиссер: Майк Флэнеган

Бюджет: $9 000 000
Премьера в мире: 20 октября 2016

rating

В ролях: Анналиса Бассо, Элизабет Ризер, Лулу Уилсон, Генри Томас, Паркер Мак, Холли Чарлтон, Даг Джонс, Кейт Сигел, Сэм Андерсон

Описание: Спиритическая доска Уиджи никогда не была просто игрой. Она служила порталом в мир мертвых. Столетиями она служила вратами между миром живых и царством мертвых. Но однажды духи выйдут из-под контроля, и первородное зло овладеет душой ребенка...

Доп. информация: Рекламы нет.

Качество: WEB-DLRip
Формат: AVI
Видео кодек: XviD
Аудио кодек: AC3
Видео: XviD, 720x384, 23.976 fps, 1721 kbps
Аудио#1: AC3, 6 ch, 384 kbps,48.0 KHz



General
Complete name : H:\релизы.торрентфайл\Ouija.Origin.of.Evil.2016.WEB-DLRip.1.46Gb.MegaPeer.avi
Format : AVI
Format/Info : Audio Video Interleave
File size : 1.46 GiB
Duration : 1h 38mn
Overall bit rate : 2 113 Kbps

Video
ID : 0
Format : MPEG-4 Visual
Format profile : Advanced Simple@L5
Format settings, BVOP : 1
Format settings, QPel : No
Format settings, GMC : No warppoints
Format settings, Matrix : Custom
Codec ID : XVID
Codec ID/Hint : XviD
Duration : 1h 38mn
Bit rate : 1 722 Kbps
Width : 720 pixels
Height : 384 pixels
Display aspect ratio : 1.85:1
Frame rate : 23.976 fps
Color space : YUV
Chroma subsampling : 4:2:0
Bit depth : 8 bits
Scan type : Progressive
Compression mode : Lossy
Bits/(Pixel*Frame) : 0.260
Stream size : 1.19 GiB (81%)
Writing library : XviD 73

Audio
ID : 1
Format : AC-3
Format/Info : Audio Coding 3
Mode extension : CM (complete main)
Format settings, Endianness : Big
Codec ID : 2000
Duration : 1h 38mn
Bit rate mode : Constant
Bit rate : 384 Kbps
Channel(s) : 6 channels
Channel positions : Front: L C R, Side: L R, LFE
Sampling rate : 48.0 KHz
Bit depth : 16 bits
Compression mode : Lossy
Stream size : 272 MiB (18%)
Alignment : Aligned on interleaves
Interleave, duration : 64 ms (1.53 video frames)
Interleave, preload duration : 192 ms
Title : iTunes

piratbit.org



Скачать Уиджи. Проклятие доски дьявола через торрент https://pic1.kartinco.top/images/11/g9oiq.jpg Скачать фильм Уиджи. Проклятие доски дьявола через торрент бесплантно в хорошем качестве Описание: Спиритическая доска Уиджи никогда не была просто игрой. Она служила порталом в мир мертвых. Столетиями она служила вратами между ... 8.6 10 27
Info! Золотая раздача, скачанное не засчитывается.
Торрент: Зарегистрирован [2017-01-05 03:48] · скачан: 666 раз
Статус: √ проверено
Размер: 1.46 GB
Как cкачать? Как скачать Уиджи. Проклятие доски дьявола через торрент | UTorrent

% Раздел Тема Автор DL S | L
Фильмы (Blu-ray, BD-Remux, HDDVD) [ 25.19 GB ] Уиджи. Проклятие доски дьявола / Ouija: Origin of Evil [2016 BD Remux 1080p] DUB [] bober100 Скачать
1 | 0
Фильмы [HD 720p, 1080p] (Хороший звук DUB, MVO) [ 7.76 GB ] Уиджи. Проклятие доски дьявола / Ouija: Origin of Evil [2016 BDRip 1080p от еnvy / NNNB] DUB еnvy Скачать
3 | 0
Фильмы (BDRip, HDrip-AVC) (48-60 fps) [ 7.53 GB ] Уиджи. Проклятие доски дьявола / Ouija: Origin of Evil [2016 BDRip 720p / 60fps] - [] sheker187 Скачать
1 | 0
Фильмы 2016 [DVDrip, WEB-DLRip, HDrip] (DUB, MVO) [ 1.46 GB ] Уиджи. Проклятие доски дьявола / Ouija: Origin of Evil [2016 BDRip] - [] Twi7ter Скачать
1 | 0
Фильмы 2016 [DVDrip, WEB-DLRip, HDrip] (DUB, MVO) [ 746 MB ] Уиджи. Проклятие доски дьявола / Ouija: Origin of Evil [2016 Япония BDRip-AVC от sokol_ok] sokol_ok Скачать
2 | 0
Фильмы 2016 [DVDrip, WEB-DLRip, HDrip] (DUB, MVO) [ 1.93 GB ] Уиджи. Проклятие доски дьявола / Ouija: Origin of Evil [2016 BDRip-AVC] - [] От ExKinoRay Enigma2010 Скачать
1 | 0
Фильмы 2016 [DVDrip, WEB-DLRip, HDrip] (DUB, MVO) [ 1.41 GB ] Уиджи. Проклятие доски дьявола / Ouija: Origin of Evil [2016 Япония BDRip-AVC от sokol_ok] sokol_ok Скачать
2 | 0

28-11-2019 20:33  

Отключить всю рекламу на сайте

07-01-2017 21:53 Уиджи. Проклятие доски дьявола Скачать торрент  

Такой ху.й.ни я еще в своей жизни не видел!!! насколько мы с женой любим смотреть ужасы!!! но такого го.вна не было давненько!!!piratbit.org



08-01-2017 18:36 Уиджи. Проклятие доски дьявола Скачать торрент  

норм кино, немного нудновато но местами было страшновато!piratbit.org



    Дорогой пользователь! Огромная просьба, поблагодарите релизера, оцените раздачу и оставьте свои комментарий, если Вы скачали Уиджи. Проклятие доски дьявола через торрент бесплатно! Внесите свою лепту в развитие PiratBit!
    Комментировать посты могут только пользователи прошедшие не сложную регистрацию
    Показать сообщения:    

    Уиджи. Проклятие доски дьявола через торрент
    Скачать бесплатно Уиджи. Проклятие доски дьявола
    Уиджи. Проклятие доски дьявола скачать торрент
    Уиджи. Проклятие доски дьявола смотреть онлайн
    Cкачать фильм Уиджи. Проклятие доски дьявола бесплатно
    Уиджи. Проклятие доски дьявола скачать торрент в хорошем качестве
    Уиджи. Проклятие доски дьявола смотреть онлайн бесплатно в хорошем качестве


    Вы не можете начинать темы
    Вы не можете отвечать на сообщения
    Вы не можете редактировать свои сообщения
    Вы не можете удалять свои сообщения
    Вы не можете голосовать в опросах
    Вы не можете прикреплять файлы к сообщениям
    Вы можете скачивать файлы