1 сезон

3 сезон

iTunes

1

iTunes

DUB Netflix

iTunes

13

1 сезон

RePack

30

Deluxe

pack

Легкие деньги

ВАЖНО

ИГРА 18+

pack

RePack

MK11

RePack

jed

RePack

fifa19

RePack

RDR2

RePack

NEED FOR SPEED™ PAYBACK

4 сезон

9 сезон

Бесстыжие 9 сезон

Все сериалы

все сериалы на PB.wtf

RePack

FAR CRY 5

Anonymous, добрый день, мы не успеваем до 1 числа собрать деньги на оплату серверов, помогите нам пожалуйста в это трудное время. В качестве благодарности мы отключим Вам всю рекламу на сайте (укажите свой ник в строку Ваше имя)!

×
  
Magnet ссылка

Франц / Frantz (Франсуа Озон) [2016 г., Драма, WEB-DLRip, Дубляж iTunes] piratbit.org

Франц через торрент piratbit.org

Размер: 1.46 GB | Добавлен: 4 года 5 мес. назад | Торрент скачан:171 раз
Скачать  

05-01-2017 04:22 Франц Скачать торрент  

Франц / Frantz
Год выпуска: 2016
Страна: Франция, Германия
Жанр: Драма
Продолжительность: 01:53:42
Перевод: Дубляж iTunes
Субтитры: Отсутствуют

Режиссер: Франсуа Озон

Премьера в мире: 3 сентября 2016

rating

В ролях: Пьер Нинэ, Паула Бир, Эрнст Штёцнер, Мария Грубер, Йохан фон Бюлов, Антон фон Люк, Сирил Клер, Элис де Ланкесэ, Аксель Вандтке, Райнер Эггер

Описание: Анна и Франц жили в небольшом немецком городе, были молоды, влюблены друг в друга и собирались пожениться. Но в тихое счастье двоих вмешался большой сумасшедший мир — шла Первая мировая война, Франца отправили на фронт во Францию, где он, 23-летний скрипач, обожавший стихи Верлена, погиб. Война закончилась, а жизнь Анны теперь свелась к поддержке пожилых родителей любимого и посещениям кладбища. Однажды там она видит незнакомого человека, который принес цветы на могилу Франца. Он, Адриен, — француз, а, значит, враг. Но встреча с ним переворачивает ее жизнь...

Доп. информация: Рекламы нет

Качество: WEB-DLRip
Формат: AVI
Видео кодек: XviD
Аудио кодек: AC3
Видео: XviD,720x304, 24.000 fps, 1441 Kbps
Аудио: AC3,384 Kbps , 6 ch, 48.0 KHz



General
Complete name : H:\релизы.торрентфайл\FFranTs.2O16.D.WEB-DLRip.avi
Format : AVI
Format/Info : Audio Video Interleave
File size : 1.46 GiB
Duration : 1h 53mn
Overall bit rate : 1 834 Kbps
Writing application : VirtualDubMod 1.5.10.2 (build 2540/release)
Writing library : VirtualDubMod build 2540/release

Video
ID : 0
Format : MPEG-4 Visual
Format profile : Advanced Simple@L5
Format settings, BVOP : 2
Format settings, QPel : No
Format settings, GMC : No warppoints
Format settings, Matrix : Default (MPEG)
Codec ID : XVID
Codec ID/Hint : XviD
Duration : 1h 53mn
Bit rate : 1 441 Kbps
Width : 720 pixels
Height : 304 pixels
Display aspect ratio : 2.35:1
Frame rate : 24.000 fps
Color space : YUV
Chroma subsampling : 4:2:0
Bit depth : 8 bits
Scan type : Progressive
Compression mode : Lossy
Bits/(Pixel*Frame) : 0.274
Stream size : 1.14 GiB (79%)
Writing library : XviD 1.2.1 (UTC 2008-12-04)

Audio
ID : 1
Format : AC-3
Format/Info : Audio Coding 3
Mode extension : CM (complete main)
Format settings, Endianness : Big
Codec ID : 2000
Duration : 1h 53mn
Bit rate mode : Constant
Bit rate : 384 Kbps
Channel(s) : 6 channels
Channel positions : Front: L C R, Side: L R, LFE
Sampling rate : 48.0 KHz
Bit depth : 16 bits
Compression mode : Lossy
Stream size : 312 MiB (21%)
Alignment : Split accross interleaves
Interleave, duration : 42 ms (1.00 video frame)
Interleave, preload duration : 500 ms

piratbit.org



Скачать Франц через торрент https://pic1.kartinco.top/images/11/sp2xx.jpg Скачать фильм Франц через торрент бесплантно в хорошем качестве Описание: Анна и Франц жили в небольшом немецком городе, были молоды, влюблены друг в друга и собирались пожениться. Но в тихое счастье ... 10 10 3
Торрент: Зарегистрирован [2017-01-05 04:22] · скачан: 171 раз
Статус: √ проверено
Размер: 1.46 GB
Как cкачать? Как скачать Франц через торрент | UTorrent

% Раздел Тема Автор DL S | L
R.G. Resident & PiratVoice - Фильмы, Видео [ 2.79 GB ] Франц / Frantz [2016 арт-хаус BDRip-AVC] - R.G.Resident schultz Скачать
1 | 0
Фильмы (Blu-ray, BD-Remux, HDDVD) [ 25.45 GB ] Франц / Frantz [2016 артхаус BDRemux 1080p] от ExKinoRay / Russian Mafia Скачать
1 | 0
Фильмы (WEB-DL 720p, 1080p) [ 3.93 GB ] Франц / Frantz [2016 WEB-DL 1080p] White Smoke Скачать
1 | 0

28-11-2019 20:33  

Отключить всю рекламу на сайте

    Дорогой пользователь! Огромная просьба, поблагодарите релизера, оцените раздачу и оставьте свои комментарий, если Вы скачали Франц через торрент бесплатно! Внесите свою лепту в развитие PiratBit!
    Комментировать посты могут только пользователи прошедшие не сложную регистрацию
    Показать сообщения:    

    Франц через торрент
    Скачать бесплатно Франц
    Франц скачать торрент
    Франц смотреть онлайн
    Cкачать фильм Франц бесплатно
    Франц скачать торрент в хорошем качестве
    Франц смотреть онлайн бесплатно в хорошем качестве


    Вы не можете начинать темы
    Вы не можете отвечать на сообщения
    Вы не можете редактировать свои сообщения
    Вы не можете удалять свои сообщения
    Вы не можете голосовать в опросах
    Вы не можете прикреплять файлы к сообщениям
    Вы можете скачивать файлы