1 сезон

3 сезон

iTunes

1

iTunes

DUB Netflix

iTunes

13

1 сезон

RePack

30

Deluxe

pack

Легкие деньги

ВАЖНО

ИГРА 18+

pack

RePack

MK11

RePack

jed

RePack

fifa19

RePack

RDR2

RePack

NEED FOR SPEED™ PAYBACK

4 сезон

9 сезон

Бесстыжие 9 сезон

Все сериалы

все сериалы на PB.wtf

RePack

FAR CRY 5

Anonymous, доброй ночи, мы не успеваем до 1 числа собрать деньги на оплату серверов, помогите нам пожалуйста в это трудное время. В качестве благодарности мы отключим Вам всю рекламу на сайте (укажите свой ник в строку Ваше имя)!

×
  
Magnet ссылка

Крейсер / USS Indianapolis: Men of Courage (Марио Ван Пиблз) [2016 г., Боевик, военный, HDRip, Дубляж "iTunes"] piratbit.org

Крейсер через торрент piratbit.org

Размер: 2.17 GB | Добавлен: 4 года 5 мес. назад | Торрент скачан:370 раз
Скачать  

05-01-2017 18:12 Крейсер Скачать торрент  

Крейсер / USS Indianapolis: Men of Courage
Год выпуска: 2016
Страна: США / Hannibal Pictures, USS Indianapolis Production
Жанр: Боевик, военный
Продолжительность: 02:09:55
Перевод: Дубляж (iTunes)

Режиссер: Марио Ван Пиблз

rating

В ролях: Николас Кейдж ,Том Сайзмор ,Томас Джейн ,Мэтт Лантер ,Джеймс Римар ,Брайан Прэсли ,Ютака Такэути ,Джонни Уэктор ,Адам Скотт Миллер ,Коуди Уокер

Описание: Лето 1945 года. До конца Второй мировой оставались считанные недели… Крейсер ВМС США «Индианополис» доставил на американскую военную базу на острове Тиниан боеголовку атомной бомбы. На обратном рейде корабль был торпедирован японцами и пошел ко дну. «SOS!» капитана Маквэя не был услышан. И живые позавидовали мертвым: палящее солнце и зубы акул, жажда и галлюцинации, безумие и адские муки отчаяния…

Качество: HDRip
Формат: AVI
Видео кодек: XviD
Аудио кодек: AC3
Видео: 720x304 (2.37:1), 23.976 fps, XviD build 50 ~2004 kbps avg, 0.38 bit/pixel
Аудио: 48 kHz, AC3 Dolby Digital, 3/2 (L,C,R,l,r) + LFE ch, ~384 kbps

Общее
Полное имя : F:\ФИЛЬМЫ\Крейсер.2016.D.HDRip.avi
Формат : AVI
Формат/Информация : Audio Video Interleave
Профиль формата : OpenDML
Размер файла : 2,17 Гбайт
Продолжительность : 2 ч. 9 м.
Общий поток : 2395 Кбит/сек
Программа кодирования : VirtualDubMod 1.5.10.3 | www.virtualdub-fr.org || (build 2550/release)
Библиотека кодирования : VirtualDubMod build 2550/release

Видео
Идентификатор : 0
Формат : MPEG-4 Visual
Профиль формата : Advanced Simple@L5
Параметр BVOP формата : 1
Параметр QPel формата : Нет
Параметр GMC формата : Без точки перехода
Параметр матрицы формата : Default (MPEG)
Идентификатор кодека : XVID
Идентификатор кодека/Подсказка : XviD
Продолжительность : 2 ч. 9 м.
Битрейт : 2000 Кбит/сек
Ширина : 720 пикселей
Высота : 304 пикселя
Соотношение сторон : 2,35:1
Частота кадров : 23,976 (24000/1001) кадра/сек
Цветовое пространство : YUV
Субдискретизация насыщенности : 4:2:0
Битовая глубина : 8 бит
Тип развёртки : Прогрессивная
Метод сжатия : С потерями
Бит/(Пиксели*Кадры) : 0.381
Размер потока : 1,81 Гбайт (83%)
Библиотека кодирования : XviD 1.2.1 (UTC 2008-12-04)

Аудио
Идентификатор : 1
Формат : AC-3
Формат/Информация : Audio Coding 3
Расширение режима : CM (complete main)
Параметр Endianness формата : Big
Идентификатор кодека : 2000
Продолжительность : 2 ч. 9 м.
Вид битрейта : Постоянный
Битрейт : 384 Кбит/сек
Каналы : 6 каналов
Расположение каналов : Front: L C R, Side: L R, LFE
Частота : 48,0 КГц
Частота кадров : 31,250 кадров/сек (1536 spf)
Битовая глубина : 16 бит
Метод сжатия : С потерями
Размер потока : 357 Мбайт (16%)
Выравнивание : Разделение по промежуткам
Продолжительность промежутка : 42 мс. (1,00 видеокадр)
Время предзагрузки промежутка : 500 мс.

piratbit.org



Скачать Крейсер через торрент http://i91.fastpic.ru/big/2017/0105/7a/2fd643672578e0491236beee2f54717a.jpg Скачать фильм Крейсер через торрент бесплантно в хорошем качестве Описание: Лето 1945 года. До конца Второй мировой оставались считанные недели… Крейсер ВМС США «Индианополис» доставил на американскую ... 9.1 10 20
Торрент: Зарегистрирован [2017-01-05 18:12] · скачан: 370 раз
Статус: √ проверено
Размер: 2.17 GB
Как cкачать? Как скачать Крейсер через торрент | UTorrent

% Раздел Тема Автор DL S | L
Фильмы (HD 720p, 1080p) (48-60 fps) [ 3.99 GB ] Крейсер / USS Indianapolis: Men of Courage [2016 BDRip - HEVC 1080p 10 bit 60 FPS] - [] dd2d3 Скачать
2 | 0
R.G. Resident & PiratVoice - Фильмы, Видео [ 3.47 GB ] Крейсер / USS Indianapolis: Men of Courage [2016 военный BDRip-AVC] - R.G.Resident schultz Скачать
1 | 0
Фильмы 2016 [DVDrip, WEB-DLRip, HDrip] (DUB, MVO) [ 2.18 GB ] Крейсер / USS Indianapolis: Men of Courage [2016 военный BDRip] - [] Twi7ter Скачать
1 | 0
Фильмы 2016 [DVDrip, WEB-DLRip, HDrip] (DUB, MVO) [ 1.46 GB ] Крейсер / USS Indianapolis: Men of Courage [2016 военный BDRip] - [] Twi7ter Скачать
1 | 0
Фильмы (Blu-ray, BD-Remux, HDDVD) [ 22.69 GB ] Крейсер / USS Indianapolis: Men of Courage [2016 военный Blu-Ray RUS] Russian Mafia Скачать
1 | 0
Фильмы (WEB-DL 720p, 1080p) [ 4.27 GB ] Крейсер / USS Indianapolis: Men of Courage [2016 военный WEB-DL 1080p] - -Lexx- Скачать
1 | 0

28-11-2019 20:33  

Отключить всю рекламу на сайте

05-01-2017 19:46 Крейсер Скачать торрент  

Как фильм?Кто смотрел?piratbit.org



05-01-2017 20:12 Крейсер Скачать торрент  

В принципе фильм не плохой))) мне понравился) по-началу как то вяло и спец эффекты не очень( но начиная с середины фильм становится куда интересней) такое ощущение, что на начало денег тратили по-минимуму а на середину и конец пошли основные средства)piratbit.org



06-01-2017 09:23 Крейсер Скачать торрент  

сперва думал фильм про акул , уже хотел вык. но патом , не много за тянуло , до смотрел на 3.5 бал. из 5.piratbit.org





Последний раз редактировалось: сокол79 (2017-01-07 14:19), всего редактировалось 1 раз

06-01-2017 11:38 Крейсер Скачать торрент  

сокол79 писал(а):

сперва думал фильм про акул , уже хотел вык. но патом , не много за тенуло , до смотрел на 3.5 бал. из 5.

Лучше б ты на каникулах грамматику подтянул :)piratbit.org



07-01-2017 13:29 Крейсер Скачать торрент  

besthome писал(а):

сокол79 писал(а):

сперва думал фильм про акул , уже хотел вык. но патом , не много за тенуло , до смотрел на 3.5 бал. из 5.

Лучше б ты на каникулах грамматику подтянул :)

Аххххааааххх piratbit.org



08-01-2017 09:01 Крейсер Скачать торрент  

Фильм то старый.Смотрел давным давно.piratbit.org



    Дорогой пользователь! Огромная просьба, поблагодарите релизера, оцените раздачу и оставьте свои комментарий, если Вы скачали Крейсер через торрент бесплатно! Внесите свою лепту в развитие PiratBit!
    Комментировать посты могут только пользователи прошедшие не сложную регистрацию
    Показать сообщения:    

    Крейсер через торрент
    Скачать бесплатно Крейсер
    Крейсер скачать торрент
    Крейсер смотреть онлайн
    Cкачать фильм Крейсер бесплатно
    Крейсер скачать торрент в хорошем качестве
    Крейсер смотреть онлайн бесплатно в хорошем качестве


    Вы не можете начинать темы
    Вы не можете отвечать на сообщения
    Вы не можете редактировать свои сообщения
    Вы не можете удалять свои сообщения
    Вы не можете голосовать в опросах
    Вы не можете прикреплять файлы к сообщениям
    Вы можете скачивать файлы