1 сезон

3 сезон

iTunes

1

iTunes

DUB Netflix

iTunes

13

1 сезон

RePack

30

Deluxe

pack

Легкие деньги

ВАЖНО

ИГРА 18+

pack

RePack

MK11

RePack

jed

RePack

fifa19

RePack

RDR2

RePack

NEED FOR SPEED™ PAYBACK

4 сезон

9 сезон

Бесстыжие 9 сезон

Все сериалы

все сериалы на PB.wtf

RePack

FAR CRY 5

Anonymous, доброй ночи, мы не успеваем до 1 числа собрать деньги на оплату серверов, помогите нам пожалуйста в это трудное время. В качестве благодарности мы отключим Вам всю рекламу на сайте (укажите свой ник в строку Ваше имя)!

×
  
Magnet ссылка

Операция «Лавина» / Operation Avalanche (Мэтт Джонсон) [2016 г., Триллер, WEB-DLRip, Любительский многоголосый (@MUZOBOZ@)] piratbit.org

Операция «Лавина» через торрент piratbit.org

Размер: 1.37 GB | Добавлен: 4 года 5 мес. назад | Торрент скачан:958 раз
Скачать  

06-01-2017 06:50 Операция «Лавина» Скачать торрент  

Операция «Лавина» / Operation Avalanche
Год выпуска: 2016
Страна: США
Жанр: Триллер
Продолжительность: 01:34:29
Перевод: Любительский многоголосый (@MUZOBOZ@)
Субтитры: Отсутствуют

Режиссер: Мэтт Джонсон

Премьера в мире: 22 января 2016

rating

В ролях: Мэтт Джонсон, Джаред Рааб, Andrew Appelle, Криста Мэдисон, Мадлен Симс-Фьюер, Джо Томас, Том Болтон, Шэрон Белль

Описание: 1967 год, самый разгар Холодной войны. Чтобы предотвратить возможный саботаж миссии «Аполлон» советскими шпионами, ЦРУ внедряет в NASA двух молодых агентов под прикрытием режиссеров-документалистов, которые должны запечатлеть подготовку к первой пилотируемой высадке на Луну. Кто бы мог подумать, что результат операции окажется куда более шокирующим, чем банальное вычисление крота из КГБ.

Доп. информация: есть реклама.

Качество: WEB-DLRip
Формат: AVI
Видео кодек: XviD
Аудио кодек: AC3
Видео: XviD, 1677 Kbps, 720x400,23.976 fps
Аудио: AC3, 2 ch, 384 Kbps, 48.0 KHz



General
Complete name : H:\релизы.торрентфайл\Operation.Avalanche.2016.P.WEB-DLRip.14OOMB.avi
Format : AVI
Format/Info : Audio Video Interleave
File size : 1.37 GiB
Duration : 1h 34mn
Overall bit rate : 2 071 Kbps
Writing application : VirtualDubMod 1.5.10.2 (build 2540/release)
Writing library : VirtualDubMod build 2540/release

Video
ID : 0
Format : MPEG-4 Visual
Format profile : Advanced Simple@L5
Format settings, BVOP : 2
Format settings, QPel : No
Format settings, GMC : No warppoints
Format settings, Matrix : Default (MPEG)
Codec ID : XVID
Codec ID/Hint : XviD
Duration : 1h 34mn
Bit rate : 1 678 Kbps
Width : 720 pixels
Height : 400 pixels
Display aspect ratio : 16:9
Frame rate : 23.976 fps
Color space : YUV
Chroma subsampling : 4:2:0
Bit depth : 8 bits
Scan type : Progressive
Compression mode : Lossy
Bits/(Pixel*Frame) : 0.243
Stream size : 1.11 GiB (81%)
Writing library : XviD 1.2.1 (UTC 2008-12-04)

Audio
ID : 1
Format : AC-3
Format/Info : Audio Coding 3
Mode extension : CM (complete main)
Format settings, Endianness : Big
Codec ID : 2000
Duration : 1h 34mn
Bit rate mode : Constant
Bit rate : 384 Kbps
Channel(s) : 2 channels
Channel positions : Front: L R
Sampling rate : 48.0 KHz
Bit depth : 16 bits
Compression mode : Lossy
Stream size : 260 MiB (19%)
Alignment : Split accross interleaves
Interleave, duration : 42 ms (1.00 video frame)
Interleave, preload duration : 500 ms

piratbit.org



Скачать Операция «Лавина» через торрент https://pic1.kartinco.top/images/11/kygfu.jpg Скачать фильм Операция «Лавина» через торрент бесплантно в хорошем качестве Описание: 1967 год, самый разгар Холодной войны. Чтобы предотвратить возможный саботаж миссии «Аполлон» советскими шпионами, ЦРУ внедряет в ... 8.7 10 23
Info! Золотая раздача, скачанное не засчитывается.
Торрент: Зарегистрирован [2017-01-06 06:50] · скачан: 958 раз
Статус: T временная
Размер: 1.37 GB
Как cкачать? Как скачать Операция «Лавина» через торрент | UTorrent

28-11-2019 20:33  

Отключить всю рекламу на сайте

06-01-2017 08:17 Операция «Лавина» Скачать торрент  

фильм интересный-спасибо!piratbit.org



06-01-2017 09:23 Операция «Лавина» Скачать торрент  

посмотрим, спасибо за раздачуpiratbit.org



06-01-2017 12:15 Операция «Лавина» Скачать торрент  

elabuga
чуть машинально таракана не прихлопнулpiratbit.org



06-01-2017 22:34 Операция «Лавина» Скачать торрент  

Юрег
я тож на таракана повелся)
а я чёт недопонял
этчё - пендосы не были чтоль на луне????piratbit.org



07-01-2017 11:10 Операция «Лавина» Скачать торрент  

vvell писал(а):

Юрег
я тож на таракана повелся)
а я чёт недопонял
этчё - пендосы не были чтоль на луне????

есть такая версия ))piratbit.org



07-01-2017 16:01 Операция «Лавина» Скачать торрент  

Были! Но снимали дубли специально, если что-то пойдет не так! Подстраховались .Мало того, есть информация, что все таки какие то отснятые кадры в ангарах утекли в эфир. Так-как много того, что не нужно было видеть.piratbit.org



07-01-2017 16:41 Операция «Лавина» Скачать торрент  

я скорее поверю,что Усамка башни с пентагоном взорвал,чем в их полеты на Луну piratbit.org



08-01-2017 12:23 Операция «Лавина» Скачать торрент  

Я смотрел что они увидели на луне что то что не захотели показывать и отсняли фильм в голливуде про высадку а когда все поняли не опровергали этогоpiratbit.org



23-01-2017 11:52 Операция «Лавина» Скачать торрент  

Юрег писал(а):

elabuga
чуть машинально таракана не прихлопнул

такая же фигня. По монитору щелбан выписал=)))piratbit.org



    Дорогой пользователь! Огромная просьба, поблагодарите релизера, оцените раздачу и оставьте свои комментарий, если Вы скачали Операция «Лавина» через торрент бесплатно! Внесите свою лепту в развитие PiratBit!
    Комментировать посты могут только пользователи прошедшие не сложную регистрацию
    Показать сообщения:    

    Операция «Лавина» через торрент
    Скачать бесплатно Операция «Лавина»
    Операция «Лавина» скачать торрент
    Операция «Лавина» смотреть онлайн
    Cкачать фильм Операция «Лавина» бесплатно
    Операция «Лавина» скачать торрент в хорошем качестве
    Операция «Лавина» смотреть онлайн бесплатно в хорошем качестве


    Вы не можете начинать темы
    Вы не можете отвечать на сообщения
    Вы не можете редактировать свои сообщения
    Вы не можете удалять свои сообщения
    Вы не можете голосовать в опросах
    Вы не можете прикреплять файлы к сообщениям
    Вы можете скачивать файлы