Доктор Стрэндж

Лицензия

Добыча

Дубляж

Уэнсдэй

1 сезон

Тор

Дубляж

В эфире

Дубляж

Там, где раки поют

MVO

Властелин колец

1 сезон

Deluxe

pack

Рекомендуем

30

Пиратка

ВАЖНО

ВАЖНО

Ghostwire

Пиратка

jed

RePack

nioh2

RePack

RDR2

RePack

NEED FOR SPEED™ PAYBACK

RePack

скачать торрент

Кинопоиск HD

Острые козырьки 6 сезон

6 сезон

FAR CRY 6

RePack

скачать торрент

Лицензия

скачать торрент

MVO

1

1 сезон

скачать торрент

1 сезон

скачать торрент

Лицензия

  

Белые ирландские пьяницы / White Irish Drinkers (Джон Грэй) [2010 г., драма, BDRip 1080p] DVO, VO

Белые ирландские пьяницы через торрент piratbit.org

Размер: 10.07 GB | Добавлен: 5 лет 11 мес. назад | Торрент скачан:41 раз
Смотреть онлайн | Скачать   

06-01-2017 07:45 Белые ирландские пьяницы Скачать торрент  

Белые ирландские пьяницы / White Irish Drinkers
Год выпуска: 2010
Страна: США
Жанр: драма
Продолжительность: 01:49:46
Перевод: Профессиональный двухголосый, любительский одноголосый (Вячеслав Замез)
Субтитры: Русские (только песни + полные, Алексей Стуликов), английские

Режиссер: Джон Грэй

rating

В ролях: Ник Тьюрстон, Джеффри Видгор, Карен Аллен, Стивен Лэнг, Питер Ригерт, Лесли Мерфи, Захари Бут, Робби Саблетт, Майкл Дрэйер, Генри Жебровский

Описание: Действие фильма разворачивается в 1975 году в районе Бэй Ридж в Бруклине. Здесь проходит жизнь семей рабочего класса, которые даже не мечтают о том, чтобы покинуть эти места. Братья- подростки Дэнни и Брайан вместе с матерью и отцом-алкоголиком также живут в этой не самой благополучной части города. В отличие от своих сверстников, главные герои картины «Белые ирландские пьяницы» хотят уехать из этих мест. Но если старший Дэнни мечтает покинуть родительский дом, устав от оскорблений и побоев своего вечно пьяного отца, то младший, Брайан, свою мечту хранит в подвале дома, где проводит все свое свободное время за рисованием. Когда мать случайно обнаруживает убежище сына, в ее сердце поселяется искра надежды, что у ее сына может быть лучшее будущее, чем то, которое она может ему предложить.

Качество: BDRip 1080p [FGT]
Формат: MKV
Видео кодек: x264
Аудио кодек: AC3, DTS
Видео: MPEG-4 AVC, 11.5 Мбит/с, 1920x812, 23.976 кадр/с
Аудио#1: AC3, 2 ch, 192 Кбит/с, 48 kHz | Профессиональный двухголосый (НТВ+)
Аудио#2: AC3, 2 ch, 192 Кбит/с, 48 kHz | Любительский одноголосый (Вячеслав Замез, нецензурный)
Аудио#3: DTS, 6 ch, 1509 Кбит/с, 48 kHz | Английский
Релиз от: Koenig
Общее
Уникальный идентификатор : 187267715613456296834036730414747783565 (0x8CE2733A8520F6E290E25AABE846918D)
Полное имя : White.Irish.Drinkers.2010.BDRip.1080p.mkv
Формат : Matroska
Версия формата : Version 4 / Version 2
Размер файла : 10,1 Гбайт
Продолжительность : 1 ч. 49 м.
Общий поток : 13,1 Мбит/сек
Название фильма : White.Irish.Drinkers.2010-FGT
Дата кодирования : UTC 2017-01-05 06:54:29
Программа кодирования : mkvmerge v9.2.0 ('Photograph') 32bit
Библиотека кодирования : libebml v1.3.3 + libmatroska v1.4.4
Обложка : Yes
Attachments : cover.jpg

Видео
Идентификатор : 1
Формат : AVC
Формат/Информация : Advanced Video Codec
Профиль формата : High@L4.1
Параметр CABAC формата : Да
Параметр ReFrames формата : 4 кадра
Идентификатор кодека : V_MPEG4/ISO/AVC
Продолжительность : 1 ч. 49 м.
Битрейт : 11,5 Мбит/сек
Ширина : 1920 пикселей
Высота : 812 пикселей
Соотношение сторон : 2,35:1
Режим частоты кадров : Постоянный
Частота кадров : 23,976 (24000/1001) кадра/сек
Цветовое пространство : YUV
Субдискретизация насыщенности : 4:2:0
Битовая глубина : 8 бит
Тип развёртки : Прогрессивная
Бит/(Пиксели*Кадры) : 0.308
Размер потока : 8,62 Гбайт (86%)
Заголовок : White Irish Drinkers
Библиотека кодирования : x264 core 148 r2694 3b70645
Настройки программы : cabac=1 / ref=4 / deblock=1:-2:-2 / analyse=0x3:0x113 / me=umh / subme=7 / psy=1 / psy_rd=1.00:0.15 / mixed_ref=1 / me_range=16 / chroma_me=1 / trellis=1 / 8x8dct=1 / cqm=0 / deadzone=21,11 / fast_pskip=1 / chroma_qp_offset=-3 / threads=40 / lookahead_threads=3 / sliced_threads=0 / nr=0 / decimate=1 / interlaced=0 / bluray_compat=0 / constrained_intra=0 / bframes=3 / b_pyramid=2 / b_adapt=2 / b_bias=0 / direct=3 / weightb=1 / open_gop=0 / weightp=2 / keyint=250 / keyint_min=25 / scenecut=40 / intra_refresh=0 / rc_lookahead=50 / rc=abr / mbtree=1 / bitrate=11500 / ratetol=1.0 / qcomp=0.60 / qpmin=0 / qpmax=69 / qpstep=4 / vbv_maxrate=31250 / vbv_bufsize=31250 / nal_hrd=none / filler=0 / ip_ratio=1.40 / aq=1:1.00
Язык : English
Default : Да
Forced : Нет

Аудио #1
Идентификатор : 2
Формат : AC-3
Формат/Информация : Audio Coding 3
Расширение режима : CM (complete main)
Параметр Endianness формата : Big
Идентификатор кодека : A_AC3
Продолжительность : 1 ч. 49 м.
Вид битрейта : Постоянный
Битрейт : 192 Кбит/сек
Каналы : 2 канала
Расположение каналов : Front: L R
Частота : 48,0 КГц
Частота кадров : 31,250 кадров/сек (1536 spf)
Битовая глубина : 16 бит
Метод сжатия : С потерями
Размер потока : 151 Мбайт (1%)
Заголовок : DVO - НТВ+
Язык : Russian
Default : Да
Forced : Нет

Аудио #2
Идентификатор : 3
Формат : AC-3
Формат/Информация : Audio Coding 3
Расширение режима : CM (complete main)
Параметр Endianness формата : Big
Идентификатор кодека : A_AC3
Продолжительность : 1 ч. 49 м.
Вид битрейта : Постоянный
Битрейт : 192 Кбит/сек
Каналы : 2 канала
Расположение каналов : Front: L R
Частота : 48,0 КГц
Частота кадров : 31,250 кадров/сек (1536 spf)
Битовая глубина : 16 бит
Метод сжатия : С потерями
Размер потока : 151 Мбайт (1%)
Заголовок : VO - ZameZ Uncenzored
Язык : Russian
Default : Нет
Forced : Нет

Аудио #3
Идентификатор : 4
Формат : DTS
Формат/Информация : Digital Theater Systems
Режим : 16
Параметр Endianness формата : Big
Идентификатор кодека : A_DTS
Продолжительность : 1 ч. 49 м.
Вид битрейта : Постоянный
Битрейт : 1509 Кбит/сек
Каналы : 6 каналов
Расположение каналов : Front: L C R, Side: L R, LFE
Частота : 48,0 КГц
Частота кадров : 93,750 кадра/сек (512 spf)
Битовая глубина : 24 бит
Метод сжатия : С потерями
Размер потока : 1,16 Гбайт (11%)
Язык : English
Default : Нет
Forced : Нет

Текст #1
Идентификатор : 5
Формат : UTF-8
Идентификатор кодека : S_TEXT/UTF8
Идентификатор кодека/Информация : UTF-8 Plain Text
Продолжительность : 1 ч. 46 м.
Битрейт : 11 бит/сек
Count of elements : 164
Размер потока : 9,02 Кбайт (0%)
Заголовок : only songs
Язык : Russian
Default : Нет
Forced : Да

Текст #2
Идентификатор : 6
Формат : UTF-8
Идентификатор кодека : S_TEXT/UTF8
Идентификатор кодека/Информация : UTF-8 Plain Text
Продолжительность : 1 ч. 48 м.
Битрейт : 124 бит/сек
Count of elements : 1985
Размер потока : 99,3 Кбайт (0%)
Заголовок : Full - Алексей Стуликов
Язык : Russian
Default : Нет
Forced : Нет

Текст #3
Идентификатор : 7
Формат : UTF-8
Идентификатор кодека : S_TEXT/UTF8
Идентификатор кодека/Информация : UTF-8 Plain Text
Продолжительность : 1 ч. 48 м.
Битрейт : 66 бит/сек
Count of elements : 1829
Размер потока : 53,0 Кбайт (0%)
Язык : English
Default : Нет
Forced : Нет




Скачать Белые ирландские пьяницы через торрент https://pic1.kartinco.top/images/11/44mra.jpg Скачать, смотреть онлайн Белые ирландские пьяницы бесплантно в хорошем качестве Описание: Действие фильма разворачивается в 1975 году в районе Бэй Ридж в Бруклине. Здесь проходит жизнь семей рабочего класса, которые ... 4.6 10 7
Торрент: Зарегистрирован [2017-01-06 07:45] · скачан: 41 раз
Статус: T временная
Размер: 10.07 GB
Как cкачать? Как скачать Белые ирландские пьяницы через торрент | UTorrent

% Раздел Тема Автор DL S | L
Фильмы 2010 [ 2.18 GB ] Белые ирландские пьяницы / White Irish Drinkers | | HDRip koenig Скачать
1 | 0

28-11-2019 20:33  


Отключить вcю реклaмy на сайте, в т.ч. и в плеере онлайн просмотра!

    Дорогой пользователь! Огромная просьба, поблагодарите релизера, оцените раздачу и оставьте свои комментарий, если Вы скачали Белые ирландские пьяницы через торрент бесплатно!!
    Комментировать посты могут только пользователи прошедшие не сложную регистрацию
    Показать сообщения:    


    Белые ирландские пьяницы через торрент
    Скачать бесплатно Белые ирландские пьяницы
    Белые ирландские пьяницы скачать торрент
    Белые ирландские пьяницы смотреть онлайн
    Cкачать фильм Белые ирландские пьяницы бесплатно
    Белые ирландские пьяницы скачать торрент в хорошем качестве
    Белые ирландские пьяницы смотреть онлайн бесплатно в хорошем качестве
    Вы не можете начинать темы
    Вы не можете отвечать на сообщения
    Вы не можете редактировать свои сообщения
    Вы не можете удалять свои сообщения
    Вы не можете голосовать в опросах
    Вы не можете прикреплять файлы к сообщениям
    Вы можете скачивать файлы
    Белые ирландские пьяницы / White Irish Drinkers [2010 г., драма, BDRip 1080p] DVO, VO смотреть онлайн, скачать торрент picoco.icu