Доктор Стрэндж

Лицензия

Добыча

MVO

Дом дракона

1 сезон

Тор

Лицензия

Мэверик

Лицензия

Там, где раки поют

MVO

Властелин колец

1 сезон

Ultimate

pack

Рекомендуем

30

Repack

ВАЖНО

ВАЖНО

Ghostwire

RePack

jed

RePack

nioh2

RePack

RDR2

RePack

NEED FOR SPEED™ PAYBACK

RePack

скачать торрент

Кинопоиск HD

Острые козырьки 6 сезон

6 сезон

FAR CRY 6

RePack

скачать торрент

Лицензия

скачать торрент

MVO

1

1 сезон

скачать торрент

1 сезон

скачать торрент

Лицензия

  

Море зовет (Владимир Браун) [1955, СССР, драма, SATRip от AVP Studio]

Море зовет через торрент piratbit.org

Размер: 746 MB | Добавлен: 5 лет 8 мес. назад | Торрент скачан:9 раз
Смотреть онлайн Море зовет | Скачать   

07-01-2017 09:32 Море зовет Скачать торрент  

Море зовет
Страна: СССР
Производство: Киностудия им. А. Довженко

Жанр: драма
Год выпуска: 1956
Продолжительность: 01:34:44

Перевод: Не требуется
Cубтитры: нет
Оригинальная аудиодорожка: русский

Режиссер: Владимир Браун

В ролях:
Людмила Скопина, Анатолий Соловьёв, Юрий Пузырёв, Александр Суснин, Вова Улитин, Надежда Семенцова, Надежда Румянцева, Григорий Козаченко, Пётр Савин, Д. Иваний, Андрей Сова, Александр Лебедев...
Полный список актёров

Описание:
Екатерина Чумак, вдова черноморского моряка, растит четверых сыновей. Дети погибшего моряка решают посвятить свои жизни морю. Двое плавают на одном сейнере. Один из них - капитан, второй мечтает о дальних берегах и пытается игнорировать приказы капитана, но вскоре поняв, что так он ничего не добьется, берет уроки мужества и порядка у старшего брата. Младший братишка - шкодливый пятиклассник Тимка - тоже когда-нибудь станет капитаном, а пока решает оставить мать в покое и устроиться юнгой на корабль.

Источник: DVB
Качество видео: SATRip
Формат видео: AVI

Видео: 576x432 (4:3), 25 fps, XviD ~ 963 kbps avg, 0.155 bit/pixel
Аудио: 48 kHz, MP3 2.0, 128 kbps

Раздача от:
Общее
Полное имя : More.zovet.1956.SATRip-745_[New-team]_by_AVP_Studio.avi
Формат : AVI
Формат/Информация : Audio Video Interleave
Размер файла : 746 Мбайт
Продолжительность : 1 ч. 34 м.
Общий поток : 1101 Кбит/сек
Программа кодирования : VirtualDubMod 1.5.10.3 | www.virtualdub-fr.org || (build 2550/release)
Библиотека кодирования : VirtualDubMod build 2550/release

Видео
Идентификатор : 0
Формат : MPEG-4 Visual
Профиль формата : Advanced Simple@L5
Параметр BVOP формата : 1
Параметр QPel формата : Нет
Параметр GMC формата : Без точки перехода
Параметр матрицы формата : Выборочная
Идентификатор кодека : XVID
Идентификатор кодека/Подсказка : XviD
Продолжительность : 1 ч. 34 м.
Битрейт : 963 Кбит/сек
Ширина : 576 пикселей
Высота : 432 пикселя
Соотношение сторон : 4:3
Частота кадров : 25,000 кадров/сек
Цветовое пространство : YUV
Субдискретизация насыщенности : 4:2:0
Битовая глубина : 8 бит
Тип развёртки : Прогрессивная
Метод сжатия : С потерями
Бит/(Пиксели*Кадры) : 0.155
Размер потока : 652 Мбайт (87%)
Библиотека кодирования : XviD 73

Аудио
Идентификатор : 1
Формат : MPEG Audio
Версия формата : Version 1
Профиль формата : Layer 3
Идентификатор кодека : 55
Идентификатор кодека/Подсказка : MP3
Продолжительность : 1 ч. 34 м.
Вид битрейта : Постоянный
Битрейт : 128 Кбит/сек
Каналы : 2 канала
Частота : 48,0 КГц
Метод сжатия : С потерями
Размер потока : 86,7 Мбайт (12%)
Выравнивание : Соединение по промежуткам
Продолжительность промежутка : 40 мс. (1,00 видеокадр)
Время предзагрузки промежутка : 504 мс.
Библиотека кодирования : LAME3.99r
Настройки программы : -m s -V 4 -q 2 -lowpass 17 -b 128



Скачать Море зовет через торрент http://s019.radikal.ru/i626/1701/36/75fdbdc5a112.png Скачать, смотреть онлайн Море зовет бесплантно в хорошем качестве Описание:Екатерина Чумак, вдова черноморского моряка, растит четверых сыновей. Дети погибшего моряка решают посвятить свои жизни морю. Двое ... 10 10 1
Info! Золотая раздача, скачанное не засчитывается.
Торрент: Зарегистрирован [2017-01-07 09:32] · скачан: 9 раз
Статус: √ проверено
Размер: 746 MB
Как cкачать? Как скачать Море зовет через торрент | UTorrent

% Раздел Тема Автор DL S | L
Кино СССР [ 1.46 GB ] Море зовет | | SATRip-AVC от AVP Studio AVP Studio Скачать
1 | 0
Кино СССР [ 1.46 GB ] Море зовет | | SATRip от AVP Studio AVP Studio Скачать
1 | 0

28-11-2019 20:33  

Отключить вcю реклaмy на сайте

    Дорогой пользователь! Огромная просьба, поблагодарите релизера, оцените раздачу и оставьте свои комментарий, если Вы скачали Море зовет через торрент бесплатно!!
    Комментировать посты могут только пользователи прошедшие не сложную регистрацию
    Показать сообщения:    


    Море зовет через торрент
    Скачать бесплатно Море зовет
    Море зовет скачать торрент
    Море зовет смотреть онлайн
    Cкачать фильм Море зовет бесплатно
    Море зовет скачать торрент в хорошем качестве
    Море зовет смотреть онлайн бесплатно в хорошем качестве
    Вы не можете начинать темы
    Вы не можете отвечать на сообщения
    Вы не можете редактировать свои сообщения
    Вы не можете удалять свои сообщения
    Вы не можете голосовать в опросах
    Вы не можете прикреплять файлы к сообщениям
    Вы можете скачивать файлы