Доктор Стрэндж

Лицензия

Добыча

MVO

Дом дракона

1 сезон

Тор

Лицензия

Мэверик

Лицензия

Там, где раки поют

MVO

Властелин колец

1 сезон

Ultimate

pack

Рекомендуем

30

Repack

ВАЖНО

ВАЖНО

Ghostwire

RePack

jed

RePack

nioh2

RePack

RDR2

RePack

NEED FOR SPEED™ PAYBACK

RePack

скачать торрент

Кинопоиск HD

Острые козырьки 6 сезон

6 сезон

FAR CRY 6

RePack

скачать торрент

Лицензия

скачать торрент

MVO

1

1 сезон

скачать торрент

1 сезон

скачать торрент

Лицензия

  

Игра Престолов / Game Of Thrones / 1 сезон / 1-10 серии из 10 (Алан Тейлор, Дэвид Наттер, Алекс Грейвз) [2011 г., фэнтези, драма, мелодрама, приключения, BDRip 720p] 2xDUB(rus+ukr) [REN TV/TET]

Игра Престолов через торрент piratbit.org

Размер: 23.26 GB | Добавлен: 5 лет 8 мес. назад | Торрент скачан:187 раз
Смотреть онлайн Игра Престолов | Скачать   

09-01-2017 19:33 Игра Престолов Скачать торрент  

Игра Престолов / Game Of Thrones
1 сезон 1-10 серии из 10
Год выпуска: 2011
Страна: США, Великобритания
Жанр: фэнтези, драма, мелодрама, приключения
Продолжительность: 10 x ~ 01:01:00
Перевод #1: Профессиональный (полное дублирование) [REN TV]
Перевод #2: Профессиональный (полное дублирование) Украинский [TET]
Субтитры: русские, украинские, английские

Режиссер: Алан Тейлор, Дэвид Наттер, Алекс Грейвз

rating

В ролях:

Шон Бин, Николай Костер-Вальдау, Лина Хиди, Айэйн Глен, Питер Динклэйдж, Эмилия Кларк, Мишель Фэйрли, Эйден Гиллен, Кит Харингтон, Марк Эдди и др.

Описание:

К концу подходит время благоденствия, и лето, длившееся несколько десятилетий, угасает. Вокруг средоточия власти Семи королевств, Железного трона, зреет заговор, и в это непростое время король решает искать поддержки у друга юности Эддарда Старка. В мире, где все — от короля до наемника — рвутся к власти, плетут интриги и готовы вонзить нож в спину, есть место и благородству, состраданию и любви. Между тем, никто не замечает пробуждение тьмы из легенд далеко на Севере — и лишь Стена защищает живых к югу от нее.

Качество: BDRip 720p
Формат: MKV
Видео кодек: H.264
Аудио кодек: AC3

Видео: 1280x720p (16:9), 23,976 fps, MPEG4 AVC (x264), High@L4.1 ~5552 Kbps avg, 0.251 bit/pixel
Аудио#1: Rus: 48 kHz, AC3, 2 ch ~ 192 Kbps [REN TV]
Аудио#2: Ukr: 48 kHz, AC3, 2 ch ~ 192 Kbps [TET]
Аудио#3: Eng: 48 kHz, AC3, 6 ch ~ 640 Kbps
Общее
Уникальный идентификатор : 182692840884757325574814275530359306301 (0x89715C7D676A620F9AC8C85500B3F83D)
Полное имя : F:\TREKER\ТЕМР\game_of_thrones_s01_\game_of_thrones_s01_e01_.mkv
Формат : Matroska
Версия формата : Version 2
Размер файла : 2,81 Гбайт
Продолжительность : 1 ч. 1 м.
Общий поток : 6523 Кбит/сек
Название фильма : Game of Thrones (2011) S01E01 – Release for HDCLUB by lostrator
Дата кодирования : UTC 2016-11-21 17:53:34
Программа кодирования : mkvmerge v4.0.0 ('The Stars were mine') сборка от Jun 6 2010 16:18:42
Библиотека кодирования : libebml v1.0.0 + libmatroska v1.0.0
Обложка : Yes
Attachments : cover.jpg

Видео
Идентификатор : 1
Формат : AVC
Формат/Информация : Advanced Video Codec
Профиль формата : High@L4.1
Параметр CABAC формата : Да
Параметр ReFrames формата : 6 кадров
Идентификатор кодека : V_MPEG4/ISO/AVC
Продолжительность : 1 ч. 1 м.
Битрейт : 5552 Кбит/сек
Ширина : 1280 пикселей
Высота : 720 пикселей
Соотношение сторон : 16:9
Режим частоты кадров : Постоянный
Частота кадров : 23,976 (24000/1001) кадра/сек
Цветовое пространство : YUV
Субдискретизация насыщенности : 4:2:0
Битовая глубина : 8 бит
Тип развёртки : Прогрессивная
Бит/(Пиксели*Кадры) : 0.251
Размер потока : 2,31 Гбайт (82%)
Заголовок : game_of_thrones.s01_e01
Библиотека кодирования : x264 core 146 r2538 121396c
Настройки программы : cabac=1 / ref=6 / deblock=1:-1:-1 / analyse=0x3:0x133 / me=umh / subme=10 / psy=1 / psy_rd=1.00:0.15 / mixed_ref=1 / me_range=24 / chroma_me=1 / trellis=2 / 8x8dct=1 / cqm=0 / deadzone=21,11 / fast_pskip=0 / chroma_qp_offset=-3 / threads=12 / lookahead_threads=1 / sliced_threads=0 / nr=0 / decimate=1 / interlaced=0 / bluray_compat=0 / constrained_intra=0 / bframes=3 / b_pyramid=2 / b_adapt=2 / b_bias=0 / direct=1 / weightb=1 / open_gop=0 / weightp=2 / keyint=250 / keyint_min=23 / scenecut=40 / intra_refresh=0 / rc_lookahead=50 / rc=abr / mbtree=1 / bitrate=5552 / ratetol=1.0 / qcomp=0.69 / qpmin=0 / qpmax=69 / qpstep=4 / ip_ratio=1.40 / aq=1:1.00
Язык : English
Default : Нет
Forced : Нет

Аудио #1
Идентификатор : 2
Формат : AC-3
Формат/Информация : Audio Coding 3
Расширение режима : CM (complete main)
Параметр Endianness формата : Big
Идентификатор кодека : A_AC3
Продолжительность : 1 ч. 1 м.
Вид битрейта : Постоянный
Битрейт : 192 Кбит/сек
Каналы : 2 канала
Расположение каналов : Front: L R
Частота : 48,0 КГц
Частота кадров : 31,250 кадров/сек (1536 spf)
Битовая глубина : 16 бит
Метод сжатия : С потерями
Размер потока : 84,6 Мбайт (3%)
Заголовок : Профессиональный (полное дублирование)
Язык : Russian
Default : Нет
Forced : Да

Аудио #2
Идентификатор : 3
Формат : AC-3
Формат/Информация : Audio Coding 3
Расширение режима : CM (complete main)
Параметр Endianness формата : Big
Идентификатор кодека : A_AC3
Продолжительность : 1 ч. 1 м.
Вид битрейта : Постоянный
Битрейт : 192 Кбит/сек
Каналы : 2 канала
Расположение каналов : Front: L R
Частота : 48,0 КГц
Частота кадров : 31,250 кадров/сек (1536 spf)
Битовая глубина : 16 бит
Метод сжатия : С потерями
Размер потока : 84,6 Мбайт (3%)
Заголовок : Профессиональный (полное дублирование)(TET)
Язык : Ukrainian
Default : Нет
Forced : Нет

Аудио #3
Идентификатор : 4
Формат : AC-3
Формат/Информация : Audio Coding 3
Расширение режима : CM (complete main)
Параметр Endianness формата : Big
Идентификатор кодека : A_AC3
Продолжительность : 1 ч. 1 м.
Вид битрейта : Постоянный
Битрейт : 640 Кбит/сек
Каналы : 6 каналов
Расположение каналов : Front: L C R, Side: L R, LFE
Частота : 48,0 КГц
Частота кадров : 31,250 кадров/сек (1536 spf)
Битовая глубина : 16 бит
Метод сжатия : С потерями
Размер потока : 282 Мбайт (10%)
Заголовок : Оригинал
Язык : English
Default : Нет
Forced : Нет

Текст #1
Идентификатор : 5
Формат : ASS
Идентификатор кодека : S_TEXT/ASS
Идентификатор кодека/Информация : Advanced Sub Station Alpha
Метод сжатия : Без потерь
Язык : Russian
Default : Нет
Forced : Нет

Текст #2
Идентификатор : 6
Формат : ASS
Идентификатор кодека : S_TEXT/ASS
Идентификатор кодека/Информация : Advanced Sub Station Alpha
Метод сжатия : Без потерь
Язык : Russian
Default : Нет
Forced : Нет

Текст #3
Идентификатор : 7
Формат : ASS
Идентификатор кодека : S_TEXT/ASS
Идентификатор кодека/Информация : Advanced Sub Station Alpha
Метод сжатия : Без потерь
Язык : Russian
Default : Нет
Forced : Нет

Текст #4
Идентификатор : 8
Формат : ASS
Идентификатор кодека : S_TEXT/ASS
Идентификатор кодека/Информация : Advanced Sub Station Alpha
Метод сжатия : Без потерь
Язык : Ukrainian
Default : Нет
Forced : Нет

Текст #5
Идентификатор : 9
Формат : UTF-8
Идентификатор кодека : S_TEXT/UTF8
Идентификатор кодека/Информация : UTF-8 Plain Text
Язык : Russian
Default : Нет
Forced : Нет

Текст #6
Идентификатор : 10
Формат : UTF-8
Идентификатор кодека : S_TEXT/UTF8
Идентификатор кодека/Информация : UTF-8 Plain Text
Язык : Russian
Default : Нет
Forced : Нет

Текст #7
Идентификатор : 11
Формат : UTF-8
Идентификатор кодека : S_TEXT/UTF8
Идентификатор кодека/Информация : UTF-8 Plain Text
Язык : Russian
Default : Нет
Forced : Нет

Текст #8
Идентификатор : 12
Формат : UTF-8
Идентификатор кодека : S_TEXT/UTF8
Идентификатор кодека/Информация : UTF-8 Plain Text
Язык : Ukrainian
Default : Нет
Forced : Нет

Текст #9
Идентификатор : 13
Формат : UTF-8
Идентификатор кодека : S_TEXT/UTF8
Идентификатор кодека/Информация : UTF-8 Plain Text
Язык : English
Default : Нет
Forced : Нет

Меню
00:00:00.000 : en:00:00:00.000
00:00:06.006 : en:00:00:06.006
00:07:16.436 : en:00:07:16.436
00:08:56.536 : en:00:08:56.536
00:18:14.510 : en:00:18:14.510
00:28:46.558 : en:00:28:46.558
00:39:35.582 : en:00:39:35.582
00:50:00.039 : en:00:50:00.039
01:00:32.629 : en:01:00:32.629
скриншот   скриншот   скриншот   скриншот  



Скачать Игра Престолов через торрент http://s09.radikal.ru/i182/1611/9a/d2de1949b974.jpg Скачать, смотреть онлайн Игра Престолов бесплантно в хорошем качестве Описание: К концу подходит время благоденствия, и лето, длившееся несколько десятилетий, угасает. Вокруг средоточия власти Семи королевств, ... 8.7 10 10
Info! Золотая раздача, скачанное не засчитывается.
Торрент: Зарегистрирован [2017-01-09 19:33] · скачан: 187 раз
Статус: √ проверено
Размер: 23.26 GB
Как cкачать? Как скачать Игра Престолов через торрент | UTorrent

% Раздел Тема Автор DL S | L
Сборники и Сиквелы (48-60 fps) [ 60.77 GB ] Игра престолов / Game of Thrones | MVO | 1080p / 60 FPS, Dub, MVO, Original Tiberiumsun69 Скачать
1 | 1
Игра престолов [ 26.6 GB ] Игра престолов / Game of Thrones / Сезон: 8 / Серии: 1-6 из 6 | LostFilm | 1080p killermax2013 Скачать
1 | 0
Игра престолов [ 844 MB ] Игра престолов / Game of Thrones / Сезон: 8 / Серии: 1 из 6 | NewStudio | DLRip bober100 Скачать
1 | 0
Игра престолов [ 9.64 GB ] Игра престолов / Game of Thrones / Сезон: 8 / Серии: 1-6 из 6 | HDRezka Studio | 720p bober100 Скачать
1 | 0
Игра престолов [ 20.4 GB ] Игра престолов / Game of Thrones / Сезон: 8 / Серии: 1-6 из 6 | HDRezka Studio | 1080p bober100 Скачать
1 | 0
Игра престолов [ 6.68 GB ] Игра престолов / Game of Thrones / Сезон: 8 / Серии: 1-2 из 6 | MVO | 1080p bober100 Скачать
1 | 0
Игра престолов [ 330.99 GB ] Игра Престолов / Game Of Thrones / Cезон: 1 / Cерии: 1-10 из 10 | Лицензия BD EUR | 2160p bober100 Скачать
1 | 0

28-11-2019 20:33  

Отключить вcю реклaмy на сайте

    Дорогой пользователь! Огромная просьба, поблагодарите релизера, оцените раздачу и оставьте свои комментарий, если Вы скачали Игра Престолов через торрент бесплатно!!
    Комментировать посты могут только пользователи прошедшие не сложную регистрацию
    Показать сообщения:    


    Игра Престолов через торрент
    Скачать бесплатно Игра Престолов
    Игра Престолов скачать торрент
    Игра Престолов смотреть онлайн
    Cкачать фильм Игра Престолов бесплатно
    Игра Престолов скачать торрент в хорошем качестве
    Игра Престолов смотреть онлайн бесплатно в хорошем качестве
    Вы не можете начинать темы
    Вы не можете отвечать на сообщения
    Вы не можете редактировать свои сообщения
    Вы не можете удалять свои сообщения
    Вы не можете голосовать в опросах
    Вы не можете прикреплять файлы к сообщениям
    Вы можете скачивать файлы