1 сезон

3 сезон

iTunes

1

iTunes

DUB Netflix

iTunes

13

1 сезон

RePack

30

Deluxe

pack

Легкие деньги

ВАЖНО

ИГРА 18+

pack

RePack

MK11

RePack

jed

RePack

fifa19

RePack

RDR2

RePack

NEED FOR SPEED™ PAYBACK

4 сезон

9 сезон

Бесстыжие 9 сезон

Все сериалы

все сериалы на PB.wtf

RePack

FAR CRY 5

Anonymous, добрый вечер, мы не успеваем до 1 числа собрать деньги на оплату серверов, помогите нам пожалуйста в это трудное время. В качестве благодарности мы отключим Вам всю рекламу на сайте (укажите свой ник в строку Ваше имя)!

×
  
Magnet ссылка

Сектор / The Sector (Джош Риджвей) [2016 г., фантастика, WEB-DLRip, Любительский многоголосый [@MUZOBOZ@]] piratbit.org

Сектор через торрент piratbit.org

Размер: 1.37 GB | Добавлен: 4 года 5 мес. назад | Торрент скачан:310 раз
Скачать  

11-01-2017 10:15 Сектор Скачать торрент  

Сектор / The Sector
Год выпуска: 2016
Страна: США / Copper Kid Productions, Quest Pacifica
Жанр: фантастика
Продолжительность: 01:26:29
Перевод: Любительский многоголосый [@MUZOBOZ@]
Субтитры: нет

Режиссер: Джош Риджвей

Премьера в мире: 5 июля 2016

rating

В ролях: Эрик Робертс, Лэнс Хенриксен, Джон Уэсли Шипп, Ричард Тайсон, Вернон Уэллс, Кларенс Гильярд мл., Джеймс Уилчек, Карл Бэйли, Молли Миллиган, Сюзанна Гибб

Описание: Мрачный мир… Процветает преступность, ведь в это тяжелое для человечества время бандитов тяжело поставить «на место». Охотник за головами берет задание найти и спасти девушку и ее отца, важную личность в этом полуразрушенном мире.

Доп. информация: Присутствует реклама

Качество: WEB-DLRip
Формат: AVI
Видео кодек: XviD
Аудио кодек: AC3
Видео: XviD,1869 Kbps,23.976 fps, 720x304,
Аудио: AC3, 384 Kbps ,2 ch,48.0 KHz



General
Complete name : H:\релизы.торрентфайл\The.Sector.2016.P.WEB-DLRip.14OOMB.avi
Format : AVI
Format/Info : Audio Video Interleave
File size : 1.37 GiB
Duration : 1h 26mn
Overall bit rate : 2 263 Kbps
Writing application : VirtualDubMod 1.5.10.2 (build 2540/release)
Writing library : VirtualDubMod build 2540/release

Video
ID : 0
Format : MPEG-4 Visual
Format profile : Advanced Simple@L5
Format settings, BVOP : 2
Format settings, QPel : No
Format settings, GMC : No warppoints
Format settings, Matrix : Default (MPEG)
Codec ID : XVID
Codec ID/Hint : XviD
Duration : 1h 26mn
Bit rate : 1 870 Kbps
Width : 720 pixels
Height : 400 pixels
Display aspect ratio : 16:9
Frame rate : 23.976 fps
Color space : YUV
Chroma subsampling : 4:2:0
Bit depth : 8 bits
Scan type : Progressive
Compression mode : Lossy
Bits/(Pixel*Frame) : 0.271
Stream size : 1.13 GiB (83%)
Writing library : XviD 1.2.1 (UTC 2008-12-04)

Audio
ID : 1
Format : AC-3
Format/Info : Audio Coding 3
Mode extension : CM (complete main)
Format settings, Endianness : Big
Codec ID : 2000
Duration : 1h 26mn
Bit rate mode : Constant
Bit rate : 384 Kbps
Channel(s) : 2 channels
Channel positions : Front: L R
Sampling rate : 48.0 KHz
Bit depth : 16 bits
Compression mode : Lossy
Stream size : 238 MiB (17%)
Alignment : Split accross interleaves
Interleave, duration : 42 ms (1.00 video frame)
Interleave, preload duration : 500 ms

piratbit.org



Скачать Сектор через торрент https://pic1.kartinco.top/images/11/dazc1.jpg Скачать фильм Сектор через торрент бесплантно в хорошем качестве Описание: Мрачный мир… Процветает преступность, ведь в это тяжелое для человечества время бандитов тяжело поставить «на место». Охотник за ... 7.4 10 8
Торрент: Зарегистрирован [2017-01-11 10:15] · скачан: 310 раз
Статус: T временная
Размер: 1.37 GB
Как cкачать? Как скачать Сектор через торрент | UTorrent

28-11-2019 20:33  

Отключить всю рекламу на сайте

11-01-2017 11:42 Сектор Скачать торрент  

даж трейлер беспантовый, представляю че там за "кино"piratbit.org



11-01-2017 12:19 Сектор Скачать торрент  

piratbit.org



11-01-2017 13:14 Сектор Скачать торрент  

vfehkfn писал(а):


ну "балованый" народ пошел-все ж есть и пойло.и мордобой в кабаке,и нигеры с копьями ,и девки второй свежестии , стреляли даже-шож Вам то еще нужно piratbit.org



    Дорогой пользователь! Огромная просьба, поблагодарите релизера, оцените раздачу и оставьте свои комментарий, если Вы скачали Сектор через торрент бесплатно! Внесите свою лепту в развитие PiratBit!
    Комментировать посты могут только пользователи прошедшие не сложную регистрацию
    Показать сообщения:    

    Сектор через торрент
    Скачать бесплатно Сектор
    Сектор скачать торрент
    Сектор смотреть онлайн
    Cкачать фильм Сектор бесплатно
    Сектор скачать торрент в хорошем качестве
    Сектор смотреть онлайн бесплатно в хорошем качестве


    Вы не можете начинать темы
    Вы не можете отвечать на сообщения
    Вы не можете редактировать свои сообщения
    Вы не можете удалять свои сообщения
    Вы не можете голосовать в опросах
    Вы не можете прикреплять файлы к сообщениям
    Вы можете скачивать файлы