2 сезон

iTunes

WEBRip

1

2 сезон

iTunes

1 сезон

1 сезон

RePack

30

Новинка

ВАЖНО

ИГРА 18+

pack

RePack

MK11
pack

Легкие деньги

RePack

jed

RePack

fifa19

RePack

RDR2

RePack

NEED FOR SPEED™ PAYBACK

4 сезон

9 сезон

Бесстыжие 9 сезон

Все сериалы

все сериалы на PB.wtf

RePack

FAR CRY 5

Anonymous, доброе утро, мы не успеваем собрать деньги на оплату серверов за февраль, помогите нам пожалуйста в это трудное время. В качестве благодарности мы отключим Вам всю рекламу на сайте (укажите свой ник в строку Ваше имя)!

×
  
Magnet ссылка

Осенние воспоминания / Осінні спогади / Autumn Memories (Али Фахр Мусави) [2016, драма, романтический, WEBRip] [Ukr] piratbit.org

Осенние воспоминания через торрент piratbit.org

Размер: 1.45 GB | Добавлен: 4 года 1 мес. назад | Торрент скачан:1 раз
Скачать  

11-01-2017 10:36 Осенние воспоминания Скачать торрент  

Осенние воспоминания / Осінні спогади / Autumn Memories
Год выпуска: 2016
Выпущено: Украина, Иран, Чехия
Жанр: драма, романтический
Продолжительность: 01:34:56
Перевод: Не требуется [оригинальный украинский]
Субтитры: английские

Режиссер: Али Фахр Мусави

В ролях: Дмитрий Линартович, Назанин Ахмади Шахпурабади, Татьяна Юрикова, Александр Игнатуша, и др

Описание: Это история любви и воспоминаний четырех человек. Первый из них - это молодой украинский музыкант Анатолий, добровольно пошел в армию, чтобы принять участие в АТО и защитить свою родную землю. После ранения он приезжает на лечение в Западную Украину, где находит новых друзей и влюбляется в молодую иракскую девушку-беженку Иму.
Но ее также любит его новый друг Александр - старший по возрасту человек, местный скульптор, пережил личную драму и пытается начать жизнь сначала. Еще одна непростая женская судьба в четвертой героини фильма - родной сестра покойной жены Александра. Она всю жизнь любит этого человека и поддерживает его в беде и радости, а ради своей любви готова действовать не только решительно, но и коварно.


Качество: WEBRip
Формат: AVI
Видео кодек: XvID
Аудио кодек: AC3
Видео: XvID, 1799 Кбит/с, 720x304, 24.000 fps
Аудио: 48 kHz, AC3, 6 ch, 384 Кбит/с

Релиз --
piratbit.org



Скачать Осенние воспоминания через торрент http://i90.fastpic.ru/big/2017/0111/d0/b0292664eb5e9d3e75e03a1087675ed0.jpg Скачать фильм Осенние воспоминания через торрент бесплантно в хорошем качестве Описание: Это история любви и воспоминаний четырех человек. Первый из них - это молодой украинский музыкант Анатолий, добровольно пошел в ... 5.5 10 2
Торрент: Зарегистрирован [2017-01-11 10:36] · скачан: 1 раз
Статус: T временная
Размер: 1.45 GB
Как cкачать? Как скачать Осенние воспоминания через торрент | UTorrent



Последний раз редактировалось: killermax2013 (2017-01-11 14:37), всего редактировалось 1 раз

28-11-2019 20:33  

Отключить всю рекламу на сайте

11-01-2017 13:00 Осенние воспоминания Скачать торрент  

killermax2013,

Цитата:

Качество: WEB-DLSCRRip [исх. WEB-DLSCR 2K]

что это?, где Вы взяли такое качество?piratbit.org



11-01-2017 13:16 Осенние воспоминания Скачать торрент  

schultz писал(а):

killermax2013,

Цитата:

Качество: WEB-DLSCRRip [исх. WEB-DLSCR 2K]

что это?, где Вы взяли такое качество?

исходник есть там же откуда и рип взял

Цитата:

качество WEB-DLSCR 2K, 2048 х 858, 10400 кб/с
размер 7.08 GB


piratbit.org



11-01-2017 13:44 Осенние воспоминания Скачать торрент  

killermax2013, МИ можно?piratbit.org



11-01-2017 14:35 Осенние воспоминания Скачать торрент  

schultz писал(а):

killermax2013, МИ можно?

General
Complete name : E:\INTERNET\Осінні спогади (2016) WEB-DLSCRRip [Hurtom].avi
Format : AVI
Format/Info : Audio Video Interleave
File size : 1.45 GiB
Duration : 1h 34mn
Overall bit rate : 2 192 Kbps
Writing application : VirtualDubMod 1.5.10.3 | www.virtualdub-fr.org || (build 2550/release)
Writing library : VirtualDubMod build 2550/release

Video
ID : 0
Format : MPEG-4 Visual
Format profile : Advanced Simple@L5
Format settings, BVOP : 1
Format settings, QPel : No
Format settings, GMC : No warppoints
Format settings, Matrix : Default (MPEG)
Codec ID : XVID
Codec ID/Hint : XviD
Duration : 1h 34mn
Bit rate : 1 799 Kbps
Width : 720 pixels
Height : 304 pixels
Display aspect ratio : 2.35:1
Frame rate : 24.000 fps
Color space : YUV
Chroma subsampling : 4:2:0
Bit depth : 8 bits
Scan type : Progressive
Compression mode : Lossy
Bits/(Pixel*Frame) : 0.342
Stream size : 1.19 GiB (82%)
Writing library : XviD 73

Audio
ID : 1
Format : AC-3
Format/Info : Audio Coding 3
Mode extension : CM (complete main)
Format settings, Endianness : Big
Codec ID : 2000
Duration : 1h 34mn
Bit rate mode : Constant
Bit rate : 384 Kbps
Channel(s) : 6 channels
Channel positions : Front: L C R, Side: L R, LFE
Sampling rate : 48.0 KHz
Compression mode : Lossy
Stream size : 261 MiB (18%)
Alignment : Split accross interleaves
Interleave, duration : 42 ms (1.00 video frame)
Interleave, preload duration : 500 ms
General
Unique ID : 222908434492227722035002888184682397185 (0xA7B29A56A3955E9DA143AFA3CAF63E01)
Complete name : E:\Осінні спогади (2016) WEB-DL 2K [Hurtom].mkv
Format : Matroska
Format version : Version 4 / Version 2
File size : 7.08 GiB
Duration : 1h 34mn
Overall bit rate mode : Variable
Overall bit rate : 10.7 Mbps
Encoded date : UTC 2017-01-01 16:27:54
Writing application : mkvmerge v7.8.0 ('River Man') 32bit built on Apr 3 2015 12:11:22
Writing library : libebml v1.3.1 + libmatroska v1.4.2
Attachements : poster.jpg

Video
ID : 1
Format : AVC
Format/Info : Advanced Video Codec
Format profile : High@L4
Format settings, CABAC : Yes
Format settings, ReFrames : 2 frames
Format settings, GOP : M=2, N=12
Codec ID : V_MPEG4/ISO/AVC
Duration : 1h 34mn
Bit rate mode : Variable
Maximum bit rate : 768 Kbps
Width : 2 048 pixels
Height : 858 pixels
Display aspect ratio : 2.40:1
Frame rate mode : Constant
Frame rate : 24.000 fps
Original frame rate : 25.000 fps
Color space : YUV
Chroma subsampling : 4:2:0
Bit depth : 8 bits
Scan type : Progressive
Default : Yes
Forced : No
Color range : Limited
Color primaries : BT.709
Transfer characteristics : BT.709
Matrix coefficients : BT.709

Audio
ID : 2
Format : AAC
Format/Info : Advanced Audio Codec
Format profile : LC
Codec ID : A_AAC
Duration : 1h 34mn
Channel(s) : 6 channels
Channel positions : Front: L C R, Side: L R, LFE
Sampling rate : 48.0 KHz
Compression mode : Lossy
Language : Ukrainian
Default : Yes
Forced : No

piratbit.org



    Дорогой пользователь! Огромная просьба, поблагодарите релизера, оцените раздачу и оставьте свои комментарий, если Вы скачали Осенние воспоминания через торрент бесплатно! Внесите свою лепту в развитие PiratBit!
    Комментировать посты могут только пользователи прошедшие не сложную регистрацию
    Показать сообщения:    

    Осенние воспоминания через торрент
    Скачать бесплатно Осенние воспоминания
    Осенние воспоминания скачать торрент
    Осенние воспоминания смотреть онлайн
    Cкачать фильм Осенние воспоминания бесплатно
    Осенние воспоминания скачать торрент в хорошем качестве
    Осенние воспоминания смотреть онлайн бесплатно в хорошем качестве


    Вы не можете начинать темы
    Вы не можете отвечать на сообщения
    Вы не можете редактировать свои сообщения
    Вы не можете удалять свои сообщения
    Вы не можете голосовать в опросах
    Вы не можете прикреплять файлы к сообщениям
    Вы можете скачивать файлы