2 сезон

iTunes

MVO

1

2 сезон

iTunes

iTunes

1 сезон

RePack

30

Новинка

ВАЖНО

ИГРА 18+

pack

RePack

MK11
pack

Легкие деньги

RePack

jed

RePack

fifa19

RePack

RDR2

RePack

NEED FOR SPEED™ PAYBACK

4 сезон

9 сезон

Бесстыжие 9 сезон

Все сериалы

все сериалы на PB.wtf

RePack

FAR CRY 5

Anonymous, доброй ночи, мы не успеваем собрать деньги на оплату серверов за декабрь и январь, помогите нам пожалуйста в это трудное время. В качестве благодарности мы отключим Вам всю рекламу на сайте (укажите свой ник в строку Ваше имя)!

×
  
Magnet ссылка

Трагическая судьба российских царевен / Russia’s Lost Princesses (Элеанор Скоонес) (Серии: 1-2 из 2) [2014 г., Документальный, история, HDTVRip, Дубляж] R.G.Resident piratbit.org

Скачать  

11-01-2017 15:57 Трагическая судьба российских царевен Скачать торрент  

Трагическая судьба российских царевен / Russia’s Lost Princesses
Год выпуска: 2014
Страна: США, British Broadcasting Corporation (BBC), Silver River Productions
Жанр: Документальный, история
Продолжительность: 2 х ~ 00:59:00
Перевод: Дубляж

Режиссер: Элеанор Скоонес

Описание: Используя интервью с ведущими историками и уникальные архивы, программа развенчивает мифы о дочерях царя Николая II. Несмотря на то, что сохранилось огромное количество фотографий Ольги, Татьяны, Марии и Анастасии, мало кто знает, какими они были на самом деле. Мы узнаем, каким образом на жизни сестер повлияло рождение их младшего брата Алексея, и почему это сблизило их с Распутиным. Программа рассказывает о том, как сложилась их судьба после Первой Мировой войны, а также о последних годах жизни сестер, включая их жестокое убийство в самый разгар революции.

Качество: HDTVRip
Формат: AVI
Видео кодек: XviD
Аудио кодек: AC3
Видео: 720x400 (1.80:1), 25 fps, XviD build 65 ~1562 kbps avg, 0.22 bit/pixel
Аудио#1: 48 kHz, AC3 Dolby Digital, 2/0 (L,R) ch, ~192.00 kbps avg
Релиз от: ruslanishe


General
Tragicheskaya.sudba.rossiiskih.careven.XviD.2014.HDTVRip.R.G.Resident\001.avi
Format : AVI
Format/Info : Audio Video Interleave
File size : 750 MiB
Duration : 59mn 28s
Overall bit rate : 1 764 Kbps
Director : ruslanishe
Writing application : VirtualDubMod 1.5.10.3 | www.virtualdub-fr.org || (build 2550/release)

Video
ID : 0
Format : MPEG-4 Visual
Format profile : Advanced Simple@L5
Format settings, BVOP : 2
Format settings, QPel : No
Format settings, GMC : No warppoints
Format settings, Matrix : Custom
Codec ID : XVID
Codec ID/Hint : XviD
Duration : 59mn 28s
Bit rate : 1 562 Kbps
Width : 720 pixels
Height : 400 pixels
Display aspect ratio : 16:9
Frame rate : 25.000 fps
Color space : YUV
Chroma subsampling : 4:2:0
Bit depth : 8 bits
Scan type : Progressive
Compression mode : Lossy
Bits/(Pixel*Frame) : 0.217
Stream size : 664 MiB (89%)
Writing library : XviD 65

Audio
ID : 1
Format : AC-3
Format/Info : Audio Coding 3
Mode extension : CM (complete main)
Format settings, Endianness : Big
Codec ID : 2000
Duration : 59mn 28s
Bit rate mode : Constant
Bit rate : 192 Kbps
Channel(s) : 2 channels
Channel positions : Front: L R
Sampling rate : 48.0 KHz
Bit depth : 16 bits
Compression mode : Lossy
Stream size : 81.7 MiB (11%)
Alignment : Split accross interleaves
Interleave, duration : 40 ms (1.00 video frame)
Interleave, preload duration : 500 ms

piratbit.org



Скачать
Чтобы иметь возможность скачивать с Торрент Трекера, нужно Зарегистрироваться

Как скачивать  ·  Рейтинг и ограничения

28-11-2019 20:33  

Отключить всю рекламу на сайте

    Дорогой пользователь! Огромная просьба, поблагодарите релизера, оцените раздачу и оставьте свои комментарий, если Вы скачали Трагическая судьба российских царевен через торрент бесплатно! Внесите свою лепту в развитие PiratBit!
    Комментировать посты могут только пользователи прошедшие не сложную регистрацию
    Показать сообщения:    

    Трагическая судьба российских царевен через торрент
    Скачать бесплатно Трагическая судьба российских царевен
    Трагическая судьба российских царевен скачать торрент
    Трагическая судьба российских царевен смотреть онлайн
    Cкачать фильм Трагическая судьба российских царевен бесплатно
    Трагическая судьба российских царевен скачать торрент в хорошем качестве
    Трагическая судьба российских царевен смотреть онлайн бесплатно в хорошем качестве


    Вы не можете начинать темы
    Вы не можете отвечать на сообщения
    Вы не можете редактировать свои сообщения
    Вы не можете удалять свои сообщения
    Вы не можете голосовать в опросах
    Вы не можете прикреплять файлы к сообщениям
    Вы не можете скачивать файлы