1 сезон

3 сезон

iTunes

1

iTunes

DUB Netflix

iTunes

13

1 сезон

RePack

30

Deluxe

pack

Легкие деньги

ВАЖНО

ИГРА 18+

pack

RePack

MK11

RePack

jed

RePack

fifa19

RePack

RDR2

RePack

NEED FOR SPEED™ PAYBACK

4 сезон

9 сезон

Бесстыжие 9 сезон

Все сериалы

все сериалы на PB.wtf

RePack

FAR CRY 5

Anonymous, добрый день, мы не успеваем до 1 числа собрать деньги на оплату серверов, помогите нам пожалуйста в это трудное время. В качестве благодарности мы отключим Вам всю рекламу на сайте (укажите свой ник в строку Ваше имя)!

×
  
Magnet ссылка

Бен-Гур / Ben-Hur (Тимур Бекмамбетов) [2016 г., боевик, драма, приключения, HDRip, Дубляж "BD CEE"] piratbit.org

Бен-Гур через торрент piratbit.org

Размер: 2.18 GB | Добавлен: 4 года 5 мес. назад | Торрент скачан:188 раз
Скачать  

13-01-2017 17:57 Бен-Гур Скачать торрент  

Бен-Гур / Ben-Hur
Год выпуска: 2016
Страна: США / LightWorkers Media, Metro-Goldwyn-Mayer (MGM), Paramount Pictures
Жанр: боевик, драма, приключения
Продолжительность: 02:03:19
Перевод: Дубляж (BD CEE)

Режиссер: Тимур Бекмамбетов

rating

В ролях: Джек Хьюстон, Тоби Кеббелл, Родриго Санторо, Назанин Бониади, Айелет Зурер, Йохан Филип Асбек, София Блэк-Д’Элиа, Морган Фриман, Марван Кензари, Мойзес Ариас

Описание: История Бен-Гура, потомка знатного иудейского рода, который был предан своим лучшим другом-римлянином. Проведя много лет в рабстве на римских галерах, Бен-Гур в итоге получает возможность вернуться на родину и отомстить обидчику.

Качество: HDRip
Формат: AVI
Видео кодек: XviD
Аудио кодек: AC3
Видео: 720x304 (2.37:1), 23.976 fps, XviD build 50 ~2075 kbps avg, 0.40 bit/pixel
Аудио: 48 kHz, AC3 Dolby Digital, 3/2 (L,C,R,l,r) + LFE ch, ~448 kbps



















Общее
Полное имя : F:\ФИЛЬМЫ\Бен-Гур.2016.D,HDRip.avi
Формат : AVI
Формат/Информация : Audio Video Interleave
Профиль формата : OpenDML
Размер файла : 2,18 Гбайт
Продолжительность : 2 ч. 3 м.
Общий поток : 2531 Кбит/сек
Программа кодирования : VirtualDubMod 1.5.10.3 | www.virtualdub-fr.org || (build 2550/release)
Библиотека кодирования : VirtualDubMod build 2550/release

Видео
Идентификатор : 0
Формат : MPEG-4 Visual
Профиль формата : Advanced Simple@L5
Параметр BVOP формата : 1
Параметр QPel формата : Нет
Параметр GMC формата : Без точки перехода
Параметр матрицы формата : Default (MPEG)
Идентификатор кодека : XVID
Идентификатор кодека/Подсказка : XviD
Продолжительность : 2 ч. 3 м.
Битрейт : 2071 Кбит/сек
Ширина : 720 пикселей
Высота : 304 пикселя
Соотношение сторон : 2,35:1
Частота кадров : 23,976 (24000/1001) кадра/сек
Цветовое пространство : YUV
Субдискретизация насыщенности : 4:2:0
Битовая глубина : 8 бит
Тип развёртки : Прогрессивная
Метод сжатия : С потерями
Бит/(Пиксели*Кадры) : 0.395
Размер потока : 1,78 Гбайт (82%)
Библиотека кодирования : XviD 1.2.1 (UTC 2008-12-04)

Аудио
Идентификатор : 1
Формат : AC-3
Формат/Информация : Audio Coding 3
Расширение режима : CM (complete main)
Параметр Endianness формата : Big
Идентификатор кодека : 2000
Продолжительность : 2 ч. 3 м.
Вид битрейта : Постоянный
Битрейт : 448 Кбит/сек
Каналы : 6 каналов
Расположение каналов : Front: L C R, Side: L R, LFE
Частота : 48,0 КГц
Частота кадров : 31,250 кадров/сек (1536 spf)
Битовая глубина : 16 бит
Метод сжатия : С потерями
Размер потока : 395 Мбайт (18%)
Выравнивание : Разделение по промежуткам
Продолжительность промежутка : 42 мс. (1,00 видеокадр)
Время предзагрузки промежутка : 500 мс.

piratbit.org



Скачать Бен-Гур через торрент http://i91.fastpic.ru/big/2017/0113/0b/0a3ef5a3839d8398ee1327aba2b5970b.png Скачать фильм Бен-Гур через торрент бесплантно в хорошем качестве Описание: История Бен-Гура, потомка знатного иудейского рода, который был предан своим лучшим другом-римлянином. Проведя много лет в ... 10 10 1
Торрент: Зарегистрирован [2017-01-13 17:57] · скачан: 188 раз
Статус: √ проверено
Размер: 2.18 GB
Как cкачать? Как скачать Бен-Гур через торрент | UTorrent

% Раздел Тема Автор DL S | L
Зарубежные сериалы [ 6.22 GB ] Бен Гур / Ben Hur / Серии: 1- из 2 [2010 WEB-DL 720p] MVO [TVShows] bober100 Скачать
1 | 0
Зарубежные сериалы [ 12.43 GB ] Бен Гур / Ben Hur / Серии: 1-2 из 2 [2010 WEBRip 1080p] [MVO] killermax2013 Скачать
1 | 0
Фильмы [HD 720p, 1080p] (Хороший звук DUB, MVO) [ 19.58 GB ] Бен-Гур / Ben-Hur [1959 история BDRip 1080p] genkasper Скачать
1 | 0
Фильмы 2016 [DVDrip, WEB-DLRip, HDrip] (DUB, MVO) [ 1.46 GB ] Бен-Гур / Ben-Hur [2016 BDRip] - [] Twi7ter Скачать
1 | 0
Фильмы [HD 720p, 1080p] (Хороший звук DUB, MVO) [ 7.95 GB ] Бен-Гур / Ben-Hur [2016 BDRip 1080p от еnvy / NNNB] DUB / еnvy Скачать
7 | 0
Фильмы 2016 [DVDrip, WEB-DLRip, HDrip] (DUB, MVO) [ 2.18 GB ] Бен-Гур / Ben-Hur [2016 BDRip] - [] Twi7ter Скачать
1 | 0
Фильмы (Blu-ray, BD-Remux, HDDVD) [ 30.78 GB ] Бен-Гур / Ben-Hur [2016 история BDRemux 1080p] от ExKinoRay / Russian Mafia Скачать
1 | 0

28-11-2019 20:33  

Отключить всю рекламу на сайте


    Дорогой пользователь! Огромная просьба, поблагодарите релизера, оцените раздачу и оставьте свои комментарий, если Вы скачали Бен-Гур через торрент бесплатно! Внесите свою лепту в развитие PiratBit!
    Комментировать посты могут только пользователи прошедшие не сложную регистрацию
    Показать сообщения:    

    Бен-Гур через торрент
    Скачать бесплатно Бен-Гур
    Бен-Гур скачать торрент
    Бен-Гур смотреть онлайн
    Cкачать фильм Бен-Гур бесплатно
    Бен-Гур скачать торрент в хорошем качестве
    Бен-Гур смотреть онлайн бесплатно в хорошем качестве


    Вы не можете начинать темы
    Вы не можете отвечать на сообщения
    Вы не можете редактировать свои сообщения
    Вы не можете удалять свои сообщения
    Вы не можете голосовать в опросах
    Вы не можете прикреплять файлы к сообщениям
    Вы можете скачивать файлы