1 сезон

3 сезон

iTunes

1

iTunes

DUB Netflix

iTunes

13

1 сезон

RePack

30

Deluxe

pack

Легкие деньги

ВАЖНО

ИГРА 18+

pack

RePack

MK11

RePack

jed

RePack

fifa19

RePack

RDR2

RePack

NEED FOR SPEED™ PAYBACK

4 сезон

9 сезон

Бесстыжие 9 сезон

Все сериалы

все сериалы на PB.wtf

RePack

FAR CRY 5

Anonymous, добрый день, мы не успеваем до 1 числа собрать деньги на оплату серверов, помогите нам пожалуйста в это трудное время. В качестве благодарности мы отключим Вам всю рекламу на сайте (укажите свой ник в строку Ваше имя)!

×
  
Magnet ссылка

Потерянное и найденное / Lost & Found (Джозеф Итая) [2016 г., детектив, приключения, семейный, WEB-DLRip, Любительский многоголосый (MUZOBOZ)] piratbit.org

Потерянное и найденное через торрент piratbit.org

Размер: 1.37 GB | Добавлен: 4 года 5 мес. назад | Торрент скачан:438 раз
Скачать  

14-01-2017 07:09 Потерянное и найденное Скачать торрент  

Потерянное и найденное / Lost & Found
Год выпуска: 2016
Страна: США, Канада
Жанр: детектив, приключения, семейный
Продолжительность: 01:32:08
Перевод: Любительский многоголосый (MUZOBOZ)
Субтитры: отсутствуют

Режиссер: Джозеф Итая

Премьера в мире: 22 февраля 2016,

rating

В ролях: Джастин Келли, Бенджамин Стокхэм, Селеста Дежардинс, Джейсон Патрик, Кэри Элвис, Грег Брайк, Ким Шелби, Мэтт Коннорс, Роберт Б. Кеннеди, Катрин МакНалли

Описание: Двоих братьев отправили на остров к родственнику, где им придется ввязаться в захватывающие поиски утерянных сокровищ их семьи.

Доп. информация: Присутствует реклама!

Качество: WEB-DLRip
Формат: AVI
Видео кодек: XviD
Аудио кодек: AC3
Видео: XviD,720x400, 23.976 fps, 1731 Кбит/с
Аудио: AC3,384 kb/s, 2 ch, 48.0 KHz



General
Complete name : H:\релизы.торрентфайл\Lost.And.Found.2016.P.WEB-DLRip.14OOMB.avi
Format : AVI
Format/Info : Audio Video Interleave
File size : 1.37 GiB
Duration : 1h 32mn
Overall bit rate : 2 124 Kbps
Writing application : VirtualDubMod 1.5.10.2 (build 2540/release)
Writing library : VirtualDubMod build 2540/release

Video
ID : 0
Format : MPEG-4 Visual
Format profile : Advanced Simple@L5
Format settings, BVOP : 2
Format settings, QPel : No
Format settings, GMC : No warppoints
Format settings, Matrix : Default (MPEG)
Codec ID : XVID
Codec ID/Hint : XviD
Duration : 1h 32mn
Bit rate : 1 731 Kbps
Width : 720 pixels
Height : 400 pixels
Display aspect ratio : 16:9
Frame rate : 23.976 fps
Color space : YUV
Chroma subsampling : 4:2:0
Bit depth : 8 bits
Scan type : Progressive
Compression mode : Lossy
Bits/(Pixel*Frame) : 0.251
Stream size : 1.11 GiB (81%)
Writing library : XviD 1.2.1 (UTC 2008-12-04)

Audio
ID : 1
Format : AC-3
Format/Info : Audio Coding 3
Mode extension : CM (complete main)
Format settings, Endianness : Big
Codec ID : 2000
Duration : 1h 32mn
Bit rate mode : Constant
Bit rate : 384 Kbps
Channel(s) : 2 channels
Channel positions : Front: L R
Sampling rate : 48.0 KHz
Bit depth : 16 bits
Compression mode : Lossy
Stream size : 253 MiB (18%)
Alignment : Split accross interleaves
Interleave, duration : 42 ms (1.00 video frame)
Interleave, preload duration : 500 ms

piratbit.org



Скачать Потерянное и найденное через торрент https://pic1.kartinco.top/images/11/hnxl3.jpg Скачать фильм Потерянное и найденное через торрент бесплантно в хорошем качестве Описание: Двоих братьев отправили на остров к родственнику, где им придется ввязаться в захватывающие поиски утерянных сокровищ их ... 6.7 10 7
Торрент: Зарегистрирован [2017-01-14 07:09] · скачан: 438 раз
Статус: T временная
Размер: 1.37 GB
Как cкачать? Как скачать Потерянное и найденное через торрент | UTorrent

28-11-2019 20:33  

Отключить всю рекламу на сайте

14-01-2017 08:28 Потерянное и найденное Скачать торрент  

Забрал спасибо, вечером поглядим.piratbit.org



14-01-2017 14:55 Потерянное и найденное Скачать торрент  

fanta86 писал(а):

Забрал спасибо, вечером поглядим.

махом ты забираешь. Мне бы такую скорость...piratbit.org



    Дорогой пользователь! Огромная просьба, поблагодарите релизера, оцените раздачу и оставьте свои комментарий, если Вы скачали Потерянное и найденное через торрент бесплатно! Внесите свою лепту в развитие PiratBit!
    Комментировать посты могут только пользователи прошедшие не сложную регистрацию
    Показать сообщения:    

    Потерянное и найденное через торрент
    Скачать бесплатно Потерянное и найденное
    Потерянное и найденное скачать торрент
    Потерянное и найденное смотреть онлайн
    Cкачать фильм Потерянное и найденное бесплатно
    Потерянное и найденное скачать торрент в хорошем качестве
    Потерянное и найденное смотреть онлайн бесплатно в хорошем качестве


    Вы не можете начинать темы
    Вы не можете отвечать на сообщения
    Вы не можете редактировать свои сообщения
    Вы не можете удалять свои сообщения
    Вы не можете голосовать в опросах
    Вы не можете прикреплять файлы к сообщениям
    Вы можете скачивать файлы