2 сезон

iTunes

MVO

1

2 сезон

iTunes

iTunes

1 сезон

RePack

30

Новинка

ВАЖНО

ИГРА 18+

pack

RePack

MK11
pack

Легкие деньги

RePack

jed

RePack

fifa19

RePack

RDR2

RePack

NEED FOR SPEED™ PAYBACK

4 сезон

9 сезон

Бесстыжие 9 сезон

Все сериалы

все сериалы на PB.wtf

RePack

FAR CRY 5

Anonymous, добрый вечер, мы не успеваем собрать деньги на оплату серверов за декабрь и январь, помогите нам пожалуйста в это трудное время. В качестве благодарности мы отключим Вам всю рекламу на сайте (укажите свой ник в строку Ваше имя)!

×
  
Magnet ссылка

BBC.Мрачное обаяние Адольфа Гитлера / The Dark Charisma of Adolf Hitler (Лоуренс Риз) [2012 г., Документальный, история, война, биография, HDTVRip, Профессиональный (одноголосый) [SD Медия] R.G.Resident piratbit.org

Скачать  

14-01-2017 09:55 BBC.Мрачное обаяние Адольфа Гитлера Скачать торрент  

BBC.Мрачное обаяние Адольфа Гитлера / The Dark Charisma of Adolf Hitler
Год выпуска: 2012
Страна: Великобритания, LR History TV Productions, BBC
Жанр: Документальный, история, война, биография
Продолжительность: 3 х ~ 00:49:00
Перевод: Профессиональный (одноголосый) SDI Media

Режиссер: Лоуренс Риз

rating

Описание: Адольф Гитлер - лидер страны с богатейшей культурой в самом сердце Европы. Человек, не способный к нормальным человеческим отношениям, лишенный сострадания, преисполненный ненависти и предрассудков. Еще задолго до Второй Мировой Войны Гитлер с жестокостью говорил о своих политических противниках. Ненависть Гитлера приведет к холокосту, а его жажда завоеваний оставит пол Европы в руинах. И все же этот человек - воплощение зла - был некогда любим миллионами. И если бы не события в мировой истории, так бы и остался Гитлер никому не известным художником

Качество: HDTVRip
Формат: AVI
Видео кодек: XviD
Аудио кодек: AC3
Видео: 720x400 (1.80:1), 25 fps, XviD build 65 ~1348 kbps avg, 0.19 bit/pixel
Аудио#1: 48 kHz, AC3 Dolby Digital, 2/0 (L,R) ch, ~192.00 kbps avg
Релиз от: ruslanishe


General
Mrachnoe.obayanie.adolfa.gitlera.XviD.2016.HDTVRip.R.G.Resident\001.avi
Format : AVI
Format/Info : Audio Video Interleave
File size : 550 MiB
Duration : 49mn 41s
Overall bit rate : 1 548 Kbps
Director : ruslanishe
Copyright : R.G.Resident

Video
ID : 0
Format : MPEG-4 Visual
Format profile : Advanced Simple@L5
Format settings, BVOP : 2
Format settings, QPel : No
Format settings, GMC : No warppoints
Format settings, Matrix : Custom
Codec ID : XVID
Codec ID/Hint : XviD
Duration : 49mn 41s
Bit rate : 1 348 Kbps
Width : 720 pixels
Height : 400 pixels
Display aspect ratio : 16:9
Frame rate : 25.000 fps
Color space : YUV
Chroma subsampling : 4:2:0
Bit depth : 8 bits
Scan type : Progressive
Compression mode : Lossy
Bits/(Pixel*Frame) : 0.187
Stream size : 479 MiB (87%)
Writing library : XviD 65

Audio
ID : 1
Format : AC-3
Format/Info : Audio Coding 3
Mode extension : CM (complete main)
Format settings, Endianness : Big
Codec ID : 2000
Duration : 49mn 41s
Bit rate mode : Constant
Bit rate : 192 Kbps
Channel(s) : 2 channels
Channel positions : Front: L R
Sampling rate : 48.0 KHz
Bit depth : 16 bits
Compression mode : Lossy
Stream size : 68.3 MiB (12%)
Alignment : Aligned on interleaves
Interleave, duration : 64 ms (1.60 video frames)
Interleave, preload duration : 192 ms
Title : Профессиональный (одноголосый)

piratbit.org



Скачать
Чтобы иметь возможность скачивать с Торрент Трекера, нужно Зарегистрироваться

Как скачивать  ·  Рейтинг и ограничения



Последний раз редактировалось: ruslanishe (2017-01-14 11:42), всего редактировалось 3 раз(а)

28-11-2019 20:33  

Отключить всю рекламу на сайте

14-01-2017 10:27 BBC.Мрачное обаяние Адольфа Гитлера Скачать торрент  

Глупый, совершенно необъективный фильм для тупиц не читающих книги и не знающих историю. Для таких снимают подобное "историческое" кино, очерняющее личности и порождающее мифы.piratbit.org



14-01-2017 12:21 BBC.Мрачное обаяние Адольфа Гитлера Скачать торрент  

так-так,посмотрим посмотрим... piratbit.org



    Дорогой пользователь! Огромная просьба, поблагодарите релизера, оцените раздачу и оставьте свои комментарий, если Вы скачали BBC.Мрачное обаяние Адольфа Гитлера через торрент бесплатно! Внесите свою лепту в развитие PiratBit!
    Комментировать посты могут только пользователи прошедшие не сложную регистрацию
    Показать сообщения:    

    BBC.Мрачное обаяние Адольфа Гитлера через торрент
    Скачать бесплатно BBC.Мрачное обаяние Адольфа Гитлера
    BBC.Мрачное обаяние Адольфа Гитлера скачать торрент
    BBC.Мрачное обаяние Адольфа Гитлера смотреть онлайн
    Cкачать фильм BBC.Мрачное обаяние Адольфа Гитлера бесплатно
    BBC.Мрачное обаяние Адольфа Гитлера скачать торрент в хорошем качестве
    BBC.Мрачное обаяние Адольфа Гитлера смотреть онлайн бесплатно в хорошем качестве


    Вы не можете начинать темы
    Вы не можете отвечать на сообщения
    Вы не можете редактировать свои сообщения
    Вы не можете удалять свои сообщения
    Вы не можете голосовать в опросах
    Вы не можете прикреплять файлы к сообщениям
    Вы не можете скачивать файлы