Доктор Стрэндж

Лицензия

Добыча

MVO

Дом дракона

1 сезон

Тор

Лицензия

Мэверик

Лицензия

Там, где раки поют

MVO

Властелин колец

1 сезон

Ultimate

pack

Рекомендуем

30

Repack

ВАЖНО

ВАЖНО

Ghostwire

RePack

jed

RePack

nioh2

RePack

RDR2

RePack

NEED FOR SPEED™ PAYBACK

RePack

скачать торрент

Кинопоиск HD

Острые козырьки 6 сезон

6 сезон

FAR CRY 6

RePack

скачать торрент

Лицензия

скачать торрент

MVO

1

1 сезон

скачать торрент

1 сезон

скачать торрент

Лицензия

  

Полюшко-поле (Вера Строева) [1956, СССР, драма, SATRip от AVP Studio]

Полюшко-поле через торрент piratbit.org

Размер: 746 MB | Добавлен: 5 лет 8 мес. назад | Торрент скачан:8 раз
Смотреть онлайн Полюшко-поле | Скачать   

15-01-2017 09:35 Полюшко-поле Скачать торрент  

Полюшко-поле
Страна: СССР
Производство: Мосфильм

Жанр: драма
Год выпуска: 1956
Продолжительность: 01:34:54

Перевод: Не требуется
Cубтитры: нет
Оригинальная аудиодорожка: русский

Режиссер: Вера Строева

В ролях:
Руфина Нифонтова, Вера Марецкая, Миша Меркулов, Всеволод Санаев, Лилия Гриценко, Александр Ануров, Татьяна Санько, Ёла Санько, Николай Михайлов, Сергей Ляхницкий, Елена Понсова, Елена Санько, Леонид Пархоменко, Светлана Харитонова, Александр Суснин, Валентина Шмелёва, Евгения Шмелёва, Ольга Шмелёва, Светлана Борусевич, Виталий Кравченко...
Об актёрах подробней

Описание:
Агроном Валя Чернышева полюбила нового главного агронома МТС Савицкого, вдовца с двумя маленькими дочерьми. Во время болезни одной из дочек, которую Валя выходила, он понял, что она стала для него близким человеком. Но девушка уехала на работу в другой дальний колхоз...

Источник: DVB
Качество видео: SATRip
Формат видео: AVI

Видео: 576x432 (4:3), 25 fps, XviD ~ 961 kbps avg, 0.154 bit/pixel
Аудио: 48 kHz, MP3 2.0, 128 kbps

Раздача от:
Общее
Полное имя : Polyushko,pole.1956.SATRip-745_[New-team]_by_AVP_Studio.avi
Формат : AVI
Формат/Информация : Audio Video Interleave
Размер файла : 746 Мбайт
Продолжительность : 1 ч. 34 м.
Общий поток : 1099 Кбит/сек
Программа кодирования : VirtualDubMod 1.5.10.3 | www.virtualdub-fr.org || (build 2550/release)
Библиотека кодирования : VirtualDubMod build 2550/release

Видео
Идентификатор : 0
Формат : MPEG-4 Visual
Профиль формата : Advanced Simple@L5
Параметр BVOP формата : 1
Параметр QPel формата : Нет
Параметр GMC формата : Без точки перехода
Параметр матрицы формата : Выборочная
Идентификатор кодека : XVID
Идентификатор кодека/Подсказка : XviD
Продолжительность : 1 ч. 34 м.
Битрейт : 961 Кбит/сек
Ширина : 576 пикселей
Высота : 432 пикселя
Соотношение сторон : 4:3
Частота кадров : 25,000 кадров/сек
Цветовое пространство : YUV
Субдискретизация насыщенности : 4:2:0
Битовая глубина : 8 бит
Тип развёртки : Прогрессивная
Метод сжатия : С потерями
Бит/(Пиксели*Кадры) : 0.154
Размер потока : 652 Мбайт (87%)
Библиотека кодирования : XviD 73

Аудио
Идентификатор : 1
Формат : MPEG Audio
Версия формата : Version 1
Профиль формата : Layer 3
Идентификатор кодека : 55
Идентификатор кодека/Подсказка : MP3
Продолжительность : 1 ч. 34 м.
Вид битрейта : Постоянный
Битрейт : 128 Кбит/сек
Каналы : 2 канала
Частота : 48,0 КГц
Метод сжатия : С потерями
Размер потока : 86,9 Мбайт (12%)
Выравнивание : Соединение по промежуткам
Продолжительность промежутка : 40 мс. (1,00 видеокадр)
Время предзагрузки промежутка : 504 мс.
Библиотека кодирования : LAME3.99r
Настройки программы : -m s -V 4 -q 2 -lowpass 17 -b 128



Скачать Полюшко-поле через торрент http://s41.radikal.ru/i093/1701/e2/80cf27fcd3fa.png Скачать, смотреть онлайн Полюшко-поле бесплантно в хорошем качестве Описание:Агроном Валя Чернышева полюбила нового главного агронома МТС Савицкого, вдовца с двумя маленькими дочерьми. Во время болезни одной ... 10 10 2
Info! Золотая раздача, скачанное не засчитывается.
Торрент: Зарегистрирован [2017-01-15 09:35] · скачан: 8 раз
Статус: √ проверено
Размер: 746 MB
Как cкачать? Как скачать Полюшко-поле через торрент | UTorrent

% Раздел Тема Автор DL S | L
Кино СССР [ 1.09 GB ] Полюшко-поле | | SATRip-AVC от AVP Studio AVP Studio Скачать
1 | 0
Кино СССР [ 1.09 GB ] Полюшко-поле | | SATRip от AVP Studio AVP Studio Скачать
1 | 0

28-11-2019 20:33  

Отключить вcю реклaмy на сайте

    Дорогой пользователь! Огромная просьба, поблагодарите релизера, оцените раздачу и оставьте свои комментарий, если Вы скачали Полюшко-поле через торрент бесплатно!!
    Комментировать посты могут только пользователи прошедшие не сложную регистрацию
    Показать сообщения:    


    Полюшко-поле через торрент
    Скачать бесплатно Полюшко-поле
    Полюшко-поле скачать торрент
    Полюшко-поле смотреть онлайн
    Cкачать фильм Полюшко-поле бесплатно
    Полюшко-поле скачать торрент в хорошем качестве
    Полюшко-поле смотреть онлайн бесплатно в хорошем качестве
    Вы не можете начинать темы
    Вы не можете отвечать на сообщения
    Вы не можете редактировать свои сообщения
    Вы не можете удалять свои сообщения
    Вы не можете голосовать в опросах
    Вы не можете прикреплять файлы к сообщениям
    Вы можете скачивать файлы