1 сезон

3 сезон

iTunes

1

iTunes

DUB Netflix

iTunes

13

1 сезон

RePack

30

Deluxe

pack

Легкие деньги

ВАЖНО

ИГРА 18+

pack

RePack

MK11

RePack

jed

RePack

fifa19

RePack

RDR2

RePack

NEED FOR SPEED™ PAYBACK

4 сезон

9 сезон

Бесстыжие 9 сезон

Все сериалы

все сериалы на PB.wtf

RePack

FAR CRY 5

Anonymous, добрый вечер, мы не успеваем до 1 числа собрать деньги на оплату серверов, помогите нам пожалуйста в это трудное время. В качестве благодарности мы отключим Вам всю рекламу на сайте (укажите свой ник в строку Ваше имя)!

×
  
Magnet ссылка

Хеллоуин Мэдеи / Boo! A Madea Halloween (Тайлер Перри) [2016, ужасы, комедия, HDRip] Любительский [многоголосый][КОЛОБОК] piratbit.org

Хеллоуин Мэдеи через торрент piratbit.org

Размер: 1.37 GB | Добавлен: 4 года 5 мес. назад | Торрент скачан:192 раза
Скачать  

15-01-2017 17:37 Хеллоуин Мэдеи Скачать торрент  


Хеллоуин Мэдеи / Boo! A Madea Halloween
««The Night She Came Home!»»

ИНФОРМАЦИЯ:
Год выпуска:2016
Страна: США
Жанр: ужасы, комедия
Продолжительность: 01:44:02
Перевод: Любительский [многоголосый]
Режиссер: Тайлер Перри

В Ролях:


Тайлер Перри (Madea / Joe / Brian), Кассандра Дэвис (Aunt Bam), Патрис Ловели (Hattie), Белла Торн (Rain), Yousef Erakat (Jonathan), Lexy Panterra (Leah), Андре Холл (Quinton), Брок О’Херн (Horse), Лиза Коши (Aday), Даймонд Уайт (Tiffany), Киан Лоули (Bean Boy), Jc Caylen (Mikey)

ОПИСАНИЕ:
Беспокойный папаша переживает, чтобы его дочка-подросток не натворила дел на Хэллоуин. Она собирается отпраздновать его с друзьями и провести время на улетной вечеринке. Ее отец просит пожилую Мэдею последить за ней и обещает за это заплатить. Мэдея соглашается, но она и не предполагала, что ей придется столкнуться в эту ночь с призраками, киллерами, паранормальными явлениями, зомби и пугающими духами.

  • Мировая премьера:21 октября 2016

    ТЕХ.ДАННЫЕ:
    Качество: HDRip
    Формат: AVI
    Видео: XviD, 720x384 (1.85:1), 1679 kbps, 23,976 fps, 0,253 bpp
    Аудио: AC3 / 2.0 / 48 kHz / 192 kbps /


    General
    Complete name : W:\Торенты\Boo.A.Madea.Halloween.2016.P.HDRip.14OOMB_avi
    Format : AVI
    Format/Info : Audio Video Interleave
    File size : 1.37 GiB
    Duration : 1 h 44 min
    Overall bit rate : 1 881 kb/s
    Writing application : VirtualDubMod 1.5.10.2 (build 2540/release)
    Writing library : VirtualDubMod build 2540/release

    Video
    ID : 0
    Format : MPEG-4 Visual
    Format profile : Advanced Simple@L5
    Format settings, BVOP : 2
    Format settings, QPel : No
    Format settings, GMC : No warppoints
    Format settings, Matrix : Default (MPEG)
    Codec ID : XVID
    Codec ID/Hint : XviD
    Duration : 1 h 44 min
    Bit rate : 1 680 kb/s
    Width : 720 pixels
    Height : 384 pixels
    Display aspect ratio : 1.85:1
    Frame rate : 23.976 (24000/1001) FPS
    Color space : YUV
    Chroma subsampling : 4:2:0
    Bit depth : 8 bits
    Scan type : Progressive
    Compression mode : Lossy
    Bits/(Pixel*Frame) : 0.253
    Stream size : 1.22 GiB (89%)
    Writing library : XviD 1.2.1 (UTC 2008-12-04)

    Audio
    ID : 1
    Format : AC-3
    Format/Info : Audio Coding 3
    Mode extension : CM (complete main)
    Format settings, Endianness : Big
    Codec ID : 2000
    Duration : 1 h 44 min
    Bit rate mode : Constant
    Bit rate : 192 kb/s
    Channel(s) : 2 channels
    Channel positions : Front: L R
    Sampling rate : 48.0 kHz
    Frame rate : 31.250 FPS (1536 spf)
    Compression mode : Lossy
    Stream size : 143 MiB (10%)
    Alignment : Split accross interleaves
    Interleave, duration : 42 ms (1.00 video frame)
    Interleave, preload duration : 500 ms
    Скриншоты:



    © Оформление by .::Ворон::.
    piratbit.org
    !Ворон писал(а):

    Имеется реклама от спонсора



  • Скачать Хеллоуин Мэдеи через торрент https://pic1.kartinco.top/images/61/ordi9.jpg Скачать фильм Хеллоуин Мэдеи через торрент бесплантно в хорошем качестве Е:Беспокойный папаша переживает, чтобы его дочка-подросток не натворила дел на Хэллоуин. Она собирается отпраздновать его с друзьями и ... 8.3 10 6
    Торрент: Зарегистрирован [2017-01-15 17:37] · скачан: 192 раз
    Статус: T временная
    Размер: 1.37 GB
    Как cкачать? Как скачать Хеллоуин Мэдеи через торрент | UTorrent

    28-11-2019 20:33  

    Отключить всю рекламу на сайте

      Дорогой пользователь! Огромная просьба, поблагодарите релизера, оцените раздачу и оставьте свои комментарий, если Вы скачали Хеллоуин Мэдеи через торрент бесплатно! Внесите свою лепту в развитие PiratBit!
      Комментировать посты могут только пользователи прошедшие не сложную регистрацию
      Показать сообщения:    

      Хеллоуин Мэдеи через торрент
      Скачать бесплатно Хеллоуин Мэдеи
      Хеллоуин Мэдеи скачать торрент
      Хеллоуин Мэдеи смотреть онлайн
      Cкачать фильм Хеллоуин Мэдеи бесплатно
      Хеллоуин Мэдеи скачать торрент в хорошем качестве
      Хеллоуин Мэдеи смотреть онлайн бесплатно в хорошем качестве


      Вы не можете начинать темы
      Вы не можете отвечать на сообщения
      Вы не можете редактировать свои сообщения
      Вы не можете удалять свои сообщения
      Вы не можете голосовать в опросах
      Вы не можете прикреплять файлы к сообщениям
      Вы можете скачивать файлы