Доктор Стрэндж

Лицензия

Добыча

MVO

Дом дракона

1 сезон

Тор

Лицензия

Мэверик

Лицензия

Там, где раки поют

MVO

Властелин колец

1 сезон

Ultimate

pack

Рекомендуем

30

Repack

ВАЖНО

ВАЖНО

Ghostwire

RePack

jed

RePack

nioh2

RePack

RDR2

RePack

NEED FOR SPEED™ PAYBACK

RePack

скачать торрент

Кинопоиск HD

Острые козырьки 6 сезон

6 сезон

FAR CRY 6

RePack

скачать торрент

Лицензия

скачать торрент

MVO

1

1 сезон

скачать торрент

1 сезон

скачать торрент

Лицензия

  

Посеяли девушки лен (Владимир Корш-Саблин) [1956, СССР, драма, мелодрама, DVDRip от AVP Studio]

Посеяли девушки лен через торрент piratbit.org

Размер: 1.46 GB | Добавлен: 5 лет 8 мес. назад | Торрент скачан:6 раз
Смотреть онлайн Посеяли девушки лен | Скачать   

16-01-2017 12:32 Посеяли девушки лен Скачать торрент  

Посеяли девушки лен
Страна: СССР
Производство: Беларусьфильм

Жанр: драма, мелодрама
Год выпуска: 1956
Продолжительность: 01:25:53

Перевод: Не требуется
Cубтитры: нет
Оригинальная аудиодорожка: русский

Режиссер: Владимир Корш-Саблин

В ролях:
Зоя Степанова, Елена Тяпкина, Лев Фричинский, Борис Кордунов, Лариса Кронберг, Тамара Трушина, Глеб Глебов, Людмила Семёнова, Нина Алисова, Александр Ильинский, Павел Пекур, А. Лихачев, Георгий Гумилевский, Валентина Кравченко...
Об актёрах подробней

Описание:
Сюжет из колхозной жизни. Звеньевая белорусского колхоза Найдейка Красович, воодушевленная наградой на Всесоюзной сельскохозяйственной выставке за высокий урожай льна, дает слово вдвое увеличить урожай. Многие односельчане сомневаются в ее успехе, и лишь Григорий Павлович, новый директор МТС, оставивший в городе семью и приехавший в село по зову партии, оказывает Надейке всяческую поддержку и чрезмерное внимание, потому что любит и, кажется, любим. Параллельно этой истории развивается сюжет о любви трактористки Зоси к леснику Янке, который безответно страдает по Надейке.

Источник: DVD5 R5
Качество видео: DVDRip
Формат видео: AVI

Видео: 704x528 (4:3), 25 fps, XviD ~ 2232 kbps avg, 0.240 bit/pixel
Аудио: 48 kHz, Dolby Digital AC3 2.0, 192 kbps

Раздача от:
Общее
Полное имя : Poseyali.devushki.len.1956.DVDRip_[New-team]_by_AVP_Studio.avi
Формат : AVI
Формат/Информация : Audio Video Interleave
Размер файла : 1,46 Гбайт
Продолжительность : 1 ч. 25 м.
Общий поток : 2433 Кбит/сек
Программа кодирования : VirtualDubMod 1.5.10.3 | www.virtualdub-fr.org || (build 2550/release)
Библиотека кодирования : VirtualDubMod build 2550/release

Видео
Идентификатор : 0
Формат : MPEG-4 Visual
Профиль формата : Advanced Simple@L5
Параметр BVOP формата : 1
Параметр QPel формата : Нет
Параметр GMC формата : Без точки перехода
Параметр матрицы формата : Выборочная
Идентификатор кодека : XVID
Идентификатор кодека/Подсказка : XviD
Продолжительность : 1 ч. 25 м.
Битрейт : 2232 Кбит/сек
Ширина : 704 пикселя
Высота : 528 пикселей
Соотношение сторон : 4:3
Частота кадров : 25,000 кадров/сек
Цветовое пространство : YUV
Субдискретизация насыщенности : 4:2:0
Битовая глубина : 8 бит
Тип развёртки : Прогрессивная
Метод сжатия : С потерями
Бит/(Пиксели*Кадры) : 0.240
Размер потока : 1,34 Гбайт (92%)
Библиотека кодирования : XviD 73

Аудио
Идентификатор : 1
Формат : AC-3
Формат/Информация : Audio Coding 3
Расширение режима : CM (complete main)
Параметр Endianness формата : Big
Идентификатор кодека : 2000
Продолжительность : 1 ч. 25 м.
Вид битрейта : Постоянный
Битрейт : 192 Кбит/сек
Каналы : 2 канала
Расположение каналов : Front: L R
Частота : 48,0 КГц
Частота кадров : 31,250 кадров/сек (1536 spf)
Битовая глубина : 16 бит
Метод сжатия : С потерями
Размер потока : 118 Мбайт (8%)
Выравнивание : Разделение по промежуткам
Продолжительность промежутка : 40 мс. (1,00 видеокадр)
Время предзагрузки промежутка : 500 мс



Скачать Посеяли девушки лен через торрент http://s05.radikal.ru/i178/1701/9e/cd3c090fd05b.png Скачать, смотреть онлайн Посеяли девушки лен бесплантно в хорошем качестве Описание:Сюжет из колхозной жизни. Звеньевая белорусского колхоза Найдейка Красович, воодушевленная наградой на Всесоюзной ... 5.5 10 2
Info! Золотая раздача, скачанное не засчитывается.
Торрент: Зарегистрирован [2017-01-16 12:32] · скачан: 6 раз
Статус: √ проверено
Размер: 1.46 GB
Как cкачать? Как скачать Посеяли девушки лен через торрент | UTorrent

% Раздел Тема Автор DL S | L
Кино СССР [ 1.46 GB ] Посеяли девушки лен | | DVDRip-AVC от AVP Studio AVP Studio Скачать
1 | 0
Кино СССР [ 745 MB ] Посеяли девушки лен | | DVDRip от AVP Studio AVP Studio Скачать
1 | 0

28-11-2019 20:33  

Отключить вcю реклaмy на сайте

    Дорогой пользователь! Огромная просьба, поблагодарите релизера, оцените раздачу и оставьте свои комментарий, если Вы скачали Посеяли девушки лен через торрент бесплатно!!
    Комментировать посты могут только пользователи прошедшие не сложную регистрацию
    Показать сообщения:    


    Посеяли девушки лен через торрент
    Скачать бесплатно Посеяли девушки лен
    Посеяли девушки лен скачать торрент
    Посеяли девушки лен смотреть онлайн
    Cкачать фильм Посеяли девушки лен бесплатно
    Посеяли девушки лен скачать торрент в хорошем качестве
    Посеяли девушки лен смотреть онлайн бесплатно в хорошем качестве
    Вы не можете начинать темы
    Вы не можете отвечать на сообщения
    Вы не можете редактировать свои сообщения
    Вы не можете удалять свои сообщения
    Вы не можете голосовать в опросах
    Вы не можете прикреплять файлы к сообщениям
    Вы можете скачивать файлы