2 сезон

iTunes

MVO

1

2 сезон

iTunes

iTunes

1 сезон

RePack

30

Новинка

ВАЖНО

ИГРА 18+

pack

RePack

MK11
pack

Легкие деньги

RePack

jed

RePack

fifa19

RePack

RDR2

RePack

NEED FOR SPEED™ PAYBACK

4 сезон

9 сезон

Бесстыжие 9 сезон

Все сериалы

все сериалы на PB.wtf

RePack

FAR CRY 5

Anonymous, доброй ночи, мы не успеваем собрать деньги на оплату серверов за декабрь и январь, помогите нам пожалуйста в это трудное время. В качестве благодарности мы отключим Вам всю рекламу на сайте (укажите свой ник в строку Ваше имя)!

×
  
Magnet ссылка

Алексей Леонов. Первый в открытом космосе (Константин Мурашев) [2014 г., Документальный, космос, биографический, HDTVRip, Русский] R.G.Resident piratbit.org

Скачать  

18-01-2017 12:10 Алексей Леонов. Первый в открытом космосе Скачать торрент  

Алексей Леонов. Первый в открытом космосе
Год выпуска: 2014
Страна: Россия, ЗАО "Среда обитания"
Жанр: Документальный, космос, биографический
Продолжительность: 00:52:01
Перевод: Русский

Режиссер: Константин Мурашев

Описание: Алексей Леонов - имя, которое говорит само за себя. Первый человек, вышедший в открытый космос! Его именем назван кратер на Луне, аэропорт в Кемерово, улица в Перми и школа в городе Гагарин. Дважды герой Советского союза, человек-легенда. Казалось, мы знаем о нем и его жизни все! Но есть другой Леонов и другая жизнь...

Качество: HDTVRip
Формат: AVI
Видео кодек: XviD
Аудио кодек: AC3
Видео: 720x400 (1.80:1), 23.976 fps, XviD build 65 ~1817 kbps avg, 0.26 bit/pixel
Аудио#1: 48 kHz, AC3 Dolby Digital, 2/0 (L,R) ch, ~192.00 kbps avg
Релиз от: ruslanishe

General
Complete name : Aleksei.Leonov.Pervii.v.otkritom.kosmose.XviD.2014.HDTVRip.R.G.Resident.avi
Format : AVI
Format/Info : Audio Video Interleave
File size : 750 MiB
Duration : 52mn 1s
Overall bit rate : 2 017 Kbps
Director : ruslanishe
Copyright : R.G.Resident

Video
ID : 0
Format : MPEG-4 Visual
Format profile : Advanced Simple@L5
Format settings, BVOP : 2
Format settings, QPel : No
Format settings, GMC : No warppoints
Format settings, Matrix : Custom
Codec ID : XVID
Codec ID/Hint : XviD
Duration : 52mn 1s
Bit rate : 1 817 Kbps
Width : 720 pixels
Height : 400 pixels
Display aspect ratio : 16:9
Frame rate : 23.976 fps
Color space : YUV
Chroma subsampling : 4:2:0
Bit depth : 8 bits
Scan type : Progressive
Compression mode : Lossy
Bits/(Pixel*Frame) : 0.263
Stream size : 676 MiB (90%)
Writing library : XviD 65

Audio
ID : 1
Format : AC-3
Format/Info : Audio Coding 3
Mode extension : CM (complete main)
Format settings, Endianness : Big
Codec ID : 2000
Duration : 52mn 1s
Bit rate mode : Constant
Bit rate : 192 Kbps
Channel(s) : 2 channels
Channel positions : Front: L R
Sampling rate : 48.0 KHz
Bit depth : 16 bits
Compression mode : Lossy
Stream size : 71.4 MiB (10%)
Alignment : Aligned on interleaves
Interleave, duration : 64 ms (1.53 video frames)
Interleave, preload duration : 192 ms
Title : Русский

piratbit.org



Скачать
Чтобы иметь возможность скачивать с Торрент Трекера, нужно Зарегистрироваться

Как скачивать  ·  Рейтинг и ограничения

28-11-2019 20:33  

Отключить всю рекламу на сайте

    Дорогой пользователь! Огромная просьба, поблагодарите релизера, оцените раздачу и оставьте свои комментарий, если Вы скачали Алексей Леонов. Первый в открытом космосе через торрент бесплатно! Внесите свою лепту в развитие PiratBit!
    Комментировать посты могут только пользователи прошедшие не сложную регистрацию
    Показать сообщения:    

    Алексей Леонов. Первый в открытом космосе через торрент
    Скачать бесплатно Алексей Леонов. Первый в открытом космосе
    Алексей Леонов. Первый в открытом космосе скачать торрент
    Алексей Леонов. Первый в открытом космосе смотреть онлайн
    Cкачать фильм Алексей Леонов. Первый в открытом космосе бесплатно
    Алексей Леонов. Первый в открытом космосе скачать торрент в хорошем качестве
    Алексей Леонов. Первый в открытом космосе смотреть онлайн бесплатно в хорошем качестве


    Вы не можете начинать темы
    Вы не можете отвечать на сообщения
    Вы не можете редактировать свои сообщения
    Вы не можете удалять свои сообщения
    Вы не можете голосовать в опросах
    Вы не можете прикреплять файлы к сообщениям
    Вы не можете скачивать файлы