Доктор Стрэндж

Лицензия

Добыча

Дубляж

Уэнсдэй

1 сезон

Тор

Дубляж

В эфире

Дубляж

Там, где раки поют

MVO

Властелин колец

1 сезон

Deluxe

pack

Рекомендуем

30

Пиратка

ВАЖНО

ВАЖНО

Ghostwire

Пиратка

jed

RePack

nioh2

RePack

RDR2

RePack

NEED FOR SPEED™ PAYBACK

RePack

скачать торрент

Кинопоиск HD

Острые козырьки 6 сезон

6 сезон

FAR CRY 6

RePack

скачать торрент

Лицензия

скачать торрент

MVO

1

1 сезон

скачать торрент

1 сезон

скачать торрент

Лицензия

  

Быстрая, как ветер / Veloce come il vento (Маттео Ровере) [2016 г., Драма, спорт, BDRip 1080p, Любительский (одноголосый)] (Вадим Белов)

Быстрая, как ветер через торрент piratbit.org

Размер: 12.39 GB | Добавлен: 5 лет 10 мес. назад | Торрент скачан:49 раз
Смотреть онлайн | Скачать   

20-01-2017 13:52 Быстрая, как ветер Скачать торрент  

Быстрая как ветер / Veloce come il vento
Год выпуска: 2016
Страна: Италия
Жанр: Драма, спорт
Продолжительность: 01:58:07
Перевод: Любительский (одноголосый) (Вадим Белов)
Примечание: Релиз без рекламы
Субтитры: вшитые отключаемые

Режиссер: Маттео Ровере

Премьера в мире: 7 апреля 2016

rating

В ролях: Стефано Аккорси, Матильда Де Ангелис, Лоренцо Джоиелли, Паоло Грациози, Ринат Хисматулин, Татьяна Лутер, Роберта Маттеи, Кристина Спина

Описание: У семьи Мартино всегда были моторное масло и бензин в крови. Они строили машины и участвовали в гонках на протяжении нескольких поколений. Кольцевые гонки, ралли, гонки на выносливость — их привлекало абсолютно всё. В силу обстоятельств глава семьи Марио должен уступить дорогу своей молодой и исключительно талантливой дочери Джулии. К ней присоединяется 40-летний брат Лорис, бывший гонщик, а ныне заядлый наркоман, но с исключительным чувством гоночной траектории и очень хорошо разбирающийся в моторах. Вместе они должны вернуться на трек и победить, узнав по пути, что значит быть семьёй и насколько это может оказаться тяжело...

Качество: BDRip 1080p рекламы нет
Формат: MKV
Видео кодек: AVC
Аудио кодек: DTS
Видео: AVC/H.264,1920х808,24.000 fps,~12.0 Mbps,0.323bpp
Аудио#1: русский/DTS/6 ch/ 1344 Kbps/48.0 KHz
Аудио#2: итальянский/DTS/6 ch/ 1344 Kbps/48.0 KHz
Релиз от: DussterСемпл








General
Unique ID : 224685626545750827629767810350792490653 (0xA908E0ABF3D6FC37A284057CBB6EBE9D)
Complete name : E:\Veloce.come.il.vento(2016)BDRip.1080p.mkv
Format : Matroska
Format version : Version 4 / Version 2
File size : 12.4 GiB
Duration : 1h 58mn
Overall bit rate mode : Variable
Overall bit rate : 15.0 Mbps
Encoded date : UTC 2017-01-12 08:54:11
Writing application : mkvmerge v9.5.0 ('Quiet Fire') 64bit
Writing library : libebml v1.3.4 + libmatroska v1.4.5
DURATION : 01:50:59.166000000
NUMBER_OF_FRAMES : 1141
NUMBER_OF_BYTES : 36615
_STATISTICS_WRITING_APP : mkvmerge v9.5.0 ('Quiet Fire') 64bit
_STATISTICS_WRITING_DATE_UTC : 2017-01-12 08:54:11
_STATISTICS_TAGS : BPS DURATION NUMBER_OF_FRAMES NUMBER_OF_BYTES

Video
ID : 1
Format : AVC
Format/Info : Advanced Video Codec
Format profile : High@L4.1
Format settings, CABAC : Yes
Format settings, ReFrames : 4 frames
Codec ID : V_MPEG4/ISO/AVC
Duration : 1h 58mn
Bit rate mode : Variable
Bit rate : 12.0 Mbps
Maximum bit rate : 40.0 Mbps
Width : 1 920 pixels
Height : 808 pixels
Display aspect ratio : 2.40:1
Original display aspect ratio : 2.40:1
Frame rate mode : Constant
Frame rate : 24.000 fps
Color space : YUV
Chroma subsampling : 4:2:0
Bit depth : 8 bits
Scan type : Progressive
Bits/(Pixel*Frame) : 0.323
Stream size : 9.92 GiB (80%)
Writing library : x264 core 148 r2597M e86f3a1
Encoding settings : cabac=1 / ref=5 / deblock=1:-3:-3 / analyse=0x3:0x113 / me=umh / subme=7 / psy=1 / psy_rd=1.10:0.00 / mixed_ref=1 / me_range=16 / chroma_me=1 / trellis=1 / 8x8dct=1 / cqm=0 / deadzone=21,11 / fast_pskip=1 / chroma_qp_offset=-2 / threads=11 / lookahead_threads=1 / sliced_threads=0 / nr=0 / decimate=1 / interlaced=0 / bluray_compat=1 / constrained_intra=0 / bframes=3 / b_pyramid=1 / b_adapt=2 / b_bias=0 / direct=3 / weightb=1 / open_gop=0 / weightp=1 / keyint=240 / keyint_min=1 / scenecut=40 / intra_refresh=0 / rc_lookahead=40 / rc=crf / mbtree=1 / crf=16.5 / qcomp=0.60 / qpmin=0 / qpmax=69 / qpstep=4 / vbv_maxrate=40000 / vbv_bufsize=30000 / crf_max=30.0 / nal_hrd=vbr / filler=0 / ip_ratio=1.20 / aq=1:1.00
Default : Yes
Forced : No
Color range : Limited
Color primaries : BT.709
Transfer characteristics : BT.709
Matrix coefficients : BT.709
DURATION : 01:58:06.834000000
NUMBER_OF_FRAMES : 170084
NUMBER_OF_BYTES : 10916238541
_STATISTICS_WRITING_APP : mkvmerge v9.5.0 ('Quiet Fire') 64bit
_STATISTICS_WRITING_DATE_UTC : 2017-01-12 08:54:11
_STATISTICS_TAGS : BPS DURATION NUMBER_OF_FRAMES NUMBER_OF_BYTES

Audio #1
ID : 2
Format : DTS
Format/Info : Digital Theater Systems
Mode : 16
Format settings, Endianness : Big
Codec ID : A_DTS
Duration : 1h 58mn
Bit rate mode : Constant
Bit rate : 1 344 Kbps
Channel(s) : 6 channels
Channel positions : Front: L C R, Side: L R, LFE
Sampling rate : 48.0 KHz
Bit depth : 24 bits
Compression mode : Lossy
Stream size : 1.11 GiB (9%)
Title : VO (DTS 5.1 1344 kbps)
Language : Russian
Default : Yes
Forced : Yes

Audio #2
ID : 3
Format : DTS
Format/Info : Digital Theater Systems
Mode : 16
Format settings, Endianness : Big
Codec ID : A_DTS
Duration : 1h 58mn
Bit rate mode : Constant
Bit rate : 1 344 Kbps
Channel(s) : 6 channels
Channel positions : Front: L C R, Side: L R, LFE
Sampling rate : 48.0 KHz
Bit depth : 24 bits
Compression mode : Lossy
Stream size : 1.11 GiB (9%)
Title : DTS 5.1 1344 kbps
Language : Italian
Default : No
Forced : No

Text #1
ID : 4
Format : UTF-8
Codec ID : S_TEXT/UTF8
Codec ID/Info : UTF-8 Plain Text
Language : Italian
Default : No
Forced : No

Text #2
ID : 5
Format : UTF-8
Codec ID : S_TEXT/UTF8
Codec ID/Info : UTF-8 Plain Text
Language : English
Default : No
Forced : No

Menu
00:00:00.000 : en:00:00:00.000
00:05:28.083 : en:00:05:28.083
00:19:27.958 : en:00:19:27.958
00:34:45.167 : en:00:34:45.167
00:45:57.500 : en:00:45:57.500
00:51:40.542 : en:00:51:40.542
01:03:05.958 : en:01:03:05.958
01:08:34.958 : en:01:08:34.958
01:20:22.417 : en:01:20:22.417
01:24:42.542 : en:01:24:42.542
01:31:18.250 : en:01:31:18.250
01:46:33.667 : en:01:46:33.667




Скачать Быстрая, как ветер через торрент https://pic1.kartinco.top/images/11/xqnwl.jpg Скачать, смотреть онлайн Быстрая, как ветер бесплантно в хорошем качестве Описание: У семьи Мартино всегда были моторное масло и бензин в крови. Они строили машины и участвовали в гонках на протяжении нескольких ... 10 10 4
Info! Золотая раздача, скачанное не засчитывается.
Торрент: Зарегистрирован [2017-01-20 13:52] · скачан: 49 раз
Статус: T временная
Размер: 12.39 GB
Как cкачать? Как скачать Быстрая, как ветер через торрент | UTorrent

% Раздел Тема Автор DL S | L
Фильмы 2016 [DVDrip, WEB-DLRip, HDrip] (DUB, MVO) [ 2.19 GB ] Итальянская гонщица / Быстрая как ветер / Veloce come il vento / Italian Race | MVO | HDRip killermax2013 Скачать
1 | 0
Фильмы (Blu-ray, BD-Remux, HDDVD) [ 24.63 GB ] Быстрая как ветер / Veloce come il vento / Italian Race | MVO | 1080p killermax2013 Скачать
1 | 0
T Фильмы 2016 (Звук TS, Cam, VO, DVO) [ 1.53 GB ] Итальянская Гонка | | BDRip killermax2013 Скачать
1 | 0



Последний раз редактировалось: Dusster (2017-01-21 13:34), всего редактировалось 2 раз(а)

28-11-2019 20:33  


Отключить вcю реклaмy на сайте, в т.ч. и в плеере онлайн просмотра!

20-01-2017 15:44 Быстрая, как ветер Скачать торрент  

Dusster писал(а):

Перевод: Любительский (одноголосый)(Вадим Белов)

Dusster, в релизах с любительским переводом указывайте, пожалуйста, в описании, есть реклама или нет. Подробнее по ссылке:
Реклама в новых релизах Кино?

Ворон писал(а):

требование к заливающим, проверять свои релизы на наличие рекламы (она как правило идет в начале и в конце) и указывать об этом в теме.







Последний раз редактировалось: -Lexx- (2017-01-21 11:31), всего редактировалось 1 раз
    Дорогой пользователь! Огромная просьба, поблагодарите релизера, оцените раздачу и оставьте свои комментарий, если Вы скачали Быстрая, как ветер через торрент бесплатно!!
    Комментировать посты могут только пользователи прошедшие не сложную регистрацию
    Показать сообщения:    


    Быстрая, как ветер через торрент
    Скачать бесплатно Быстрая, как ветер
    Быстрая, как ветер скачать торрент
    Быстрая, как ветер смотреть онлайн
    Cкачать фильм Быстрая, как ветер бесплатно
    Быстрая, как ветер скачать торрент в хорошем качестве
    Быстрая, как ветер смотреть онлайн бесплатно в хорошем качестве
    Вы не можете начинать темы
    Вы не можете отвечать на сообщения
    Вы не можете редактировать свои сообщения
    Вы не можете удалять свои сообщения
    Вы не можете голосовать в опросах
    Вы не можете прикреплять файлы к сообщениям
    Вы можете скачивать файлы
    Быстрая, как ветер / Veloce come il vento [2016 г., Драма, спорт, BDRip 1080p, Любительский ] смотреть онлайн, скачать торрент picoco.icu