2 сезон

iTunes

WEBRip

1

2 сезон

iTunes

1 сезон

1 сезон

RePack

30

Новинка

ВАЖНО

ИГРА 18+

pack

RePack

MK11
pack

Легкие деньги

RePack

jed

RePack

fifa19

RePack

RDR2

RePack

NEED FOR SPEED™ PAYBACK

4 сезон

9 сезон

Бесстыжие 9 сезон

Все сериалы

все сериалы на PB.wtf

RePack

FAR CRY 5

Anonymous, доброй ночи, мы не успеваем собрать деньги на оплату серверов за февраль, помогите нам пожалуйста в это трудное время. В качестве благодарности мы отключим Вам всю рекламу на сайте (укажите свой ник в строку Ваше имя)!

×
  
Magnet ссылка

Табу / Taboo / Сезон: 1 / Серии: 1-8 из 8 (Андерс Энгстрем, Кристоффер Нюхольм) [2017, Драма, WEB-DLRip] [Ukr MVO] piratbit.org

Табу через торрент piratbit.org

Размер: 4.4 GB | Добавлен: 3 года 11 мес. назад | Торрент скачан:31 раз
Скачать  

21-01-2017 22:44 Табу Скачать торрент  

Табу / Taboo

Год выхода: 2016
Страна: Великобритания, США
Жанр: драма
Продолжительность: ~ 00:55:00
Перевод: Украинский (профессиональный многоголосный)
Субтитры: нет

Режиссёры: Андерс Энгстрем, Кристоффер Нюхольм

В ролях: Том Харди, Лео Билл, Уна Чаплин, Ричард Диксон, Дэвид Хейман, Майкл Келли, Дэнни Лигаири, Джонатан Прайс, Рой Торн, Скрубиус Пип.

Описание: Искатель приключений Джеймс Кезайя Делейни строит свою собственную корабельную империю в начале 1800-х годов.


Релиз --
Качество: WEB-DLRip
Формат: AVI
Видео: 720x400 (1.80:1), 25 fps, XviD build 73 ~1500 kbps avg
Аудио: 48 kHz, AC3, 6 ch, ~384.00 kbps avg


General
Complete name : E:\Taboo (Season 1) (2017) WEB-DLRip [Hurtom]\Taboo S01E01 (2017) WEB-DLRip [Hurtom].avi
Format : AVI
Format/Info : Audio Video Interleave
File size : 746 MiB
Duration : 55mn 4s
Overall bit rate : 1 894 Kbps
Writing application : VirtualDubMod 1.5.10.2 (build 2540/release)
Writing library : VirtualDubMod build 2540/release

Video
ID : 0
Format : MPEG-4 Visual
Format profile : Advanced Simple@L5
Format settings, BVOP : 2
Format settings, QPel : No
Format settings, GMC : No warppoints
Format settings, Matrix : Custom
Codec ID : XVID
Codec ID/Hint : XviD
Duration : 55mn 4s
Bit rate : 1 426 Kbps
Width : 720 pixels
Height : 400 pixels
Display aspect ratio : 16:9
Frame rate : 25.000 fps
Color space : YUV
Chroma subsampling : 4:2:0
Bit depth : 8 bits
Scan type : Progressive
Compression mode : Lossy
Bits/(Pixel*Frame) : 0.198
Stream size : 562 MiB (75%)
Writing library : XviD 73

Audio
ID : 1
Format : AC-3
Format/Info : Audio Coding 3
Mode extension : CM (complete main)
Format settings, Endianness : Big
Codec ID : 2000
Duration : 55mn 4s
Bit rate mode : Constant
Bit rate : 384 Kbps
Channel(s) : 6 channels
Channel positions : Front: L C R, Side: L R, LFE
Sampling rate : 48.0 KHz
Compression mode : Lossy
Stream size : 151 MiB (20%)
Alignment : Split accross interleaves
piratbit.org



Скачать Табу через торрент http://i90.fastpic.ru/big/2017/0109/79/650051978dadc0d9e4651cda01cfe079.jpg Скачать фильм Табу через торрент бесплантно в хорошем качестве Описание: Искатель приключений Джеймс Кезайя Делейни строит свою собственную корабельную империю в начале 1800-х годов. Релиз -- ... 10 10 5
Торрент: Зарегистрирован [2017-03-02 08:58] · скачан: 31 раз
Статус: √ проверено
Размер: 4.4 GB
Как cкачать? Как скачать Табу через торрент | UTorrent

% Раздел Тема Автор DL S | L
Зарубежные сериалы [ 14.06 GB ] Табу / Taboo / Сезон: 1 / Серии: 1-8 из 8 [2017 BDRip 1080p] [DVO] + 4x [MVO] killermax2013 Скачать
1 | 0
Зарубежные сериалы [ 7.6 GB ] Табу / Taboo / Сезон: 1 / Серии: 1-8 из 8 [2017 BDRip] [MVO] killermax2013 Скачать
1 | 0
Зарубежные сериалы [ 5.14 GB ] Табу / Taboo / Сезон: 1 / Серии: 1-8 из 8 [2017 WEB-DLRip] [MVO] killermax2013 Скачать
1 | 0
Зарубежные сериалы [ 7.46 GB ] Табу / Taboo / Сезон 1 / Серии 1-8 из 8 [2017 WEB-DLRip-AVC] многоголосый [NewStudio] от ExKinoRay Enigma2010 Скачать
1 | 0
Зарубежные сериалы [ 19.88 GB ] Табу / Taboo / Сезон: 1 / Серии: 8 из 8 [2017 WEB-DL 1080p] MVO Ворон Скачать
1 | 0
Зарубежные сериалы [ 10.31 GB ] Табу / Taboo / Сезон: 1 / Серии: 1-8 из 8 [2017 WEBRip 720p / HDTVRip 720p] [DVO] killermax2013 Скачать
3 | 0
Зарубежные сериалы [ 30.9 GB ] Табу / Taboo / Сезон: 1 / Серии: 1-8 из 8 [2017 HDTVRip 1080p] [MVO] killermax2013 Скачать
1 | 0


Последний раз редактировалось: killermax2013 (2017-03-02 09:00), всего редактировалось 2 раз(а)

28-11-2019 20:33  

Отключить всю рекламу на сайте

05-02-2017 08:29 Табу Скачать торрент  

+2-3piratbit.org



02-03-2017 08:58 Табу Скачать торрент  

Добавлены все серии.Сезон завершенpiratbit.org



    Дорогой пользователь! Огромная просьба, поблагодарите релизера, оцените раздачу и оставьте свои комментарий, если Вы скачали Табу через торрент бесплатно! Внесите свою лепту в развитие PiratBit!
    Комментировать посты могут только пользователи прошедшие не сложную регистрацию
    Показать сообщения:    

    Табу через торрент
    Скачать бесплатно Табу
    Табу скачать торрент
    Табу смотреть онлайн
    Cкачать фильм Табу бесплатно
    Табу скачать торрент в хорошем качестве
    Табу смотреть онлайн бесплатно в хорошем качестве


    Вы не можете начинать темы
    Вы не можете отвечать на сообщения
    Вы не можете редактировать свои сообщения
    Вы не можете удалять свои сообщения
    Вы не можете голосовать в опросах
    Вы не можете прикреплять файлы к сообщениям
    Вы можете скачивать файлы