Доктор Стрэндж

Лицензия

Добыча

MVO

Дом дракона

1 сезон

Тор

Лицензия

Мэверик

Лицензия

Там, где раки поют

MVO

Властелин колец

1 сезон

Ultimate

pack

Рекомендуем

30

Repack

ВАЖНО

ВАЖНО

Ghostwire

RePack

jed

RePack

nioh2

RePack

RDR2

RePack

NEED FOR SPEED™ PAYBACK

RePack

скачать торрент

Кинопоиск HD

Острые козырьки 6 сезон

6 сезон

FAR CRY 6

RePack

скачать торрент

Лицензия

скачать торрент

MVO

1

1 сезон

скачать торрент

1 сезон

скачать торрент

Лицензия

  

Пролог (Ефим Дзиган) [1956, СССР, драма, VHSRip от AVP Studio]

Пролог через торрент piratbit.org

Размер: 1.46 GB | Добавлен: 5 лет 8 мес. назад | Торрент скачан:9 раз
Смотреть онлайн | Скачать   

22-01-2017 22:09 Пролог Скачать торрент  

Пролог
Страна: СССР
Производство: Мосфильм

Жанр: драма
Год выпуска: 1956
Продолжительность: 01:39:48

Перевод: Не требуется
Cубтитры: нет
Оригинальная аудиодорожка: русский

Режиссер: Ефим Дзиган

В ролях:
Николай Плотников, Мария Пастухова, Павел Кадочников, Владимир Соловьёв, Инна Кондратьева, Виктор Авдюшко, Данута Столярская, Нина Родионова, Павел Винник, Зинаида Воркуль, Николай Граббе, Пётр Константинов, Геннадий Юдин, Владимир Колчин, Ефим Копелян, Пётр Савин, Иван Коваль-Самборский...
Об актёрах подробней

Описание:
Об одном из эпизодов первой русской революции 1905 года. После жестокой расправы с мирной демонстрацией трудового народа под руководительством попа Гапона, известной как «кровавое воскресение» направлявшейся к царю, В. И. Ленин и другие члены партии, находящиеся в эмиграции, призывают рабочих к вооруженному восстанию.

Источник: VHS
Качество видео: VHSRip
Формат видео: AVI

Видео: 704x528 (4:3), 25 fps, XviD ~ 1892 kbps avg, 0.204 bit/pixel
Аудио: 48 kHz, Dolby Digital AC3 2.0, 192 kbps

Раздача от:
Общее
Полное имя : Prolog.1956.VHSRip_[New-team]_by_AVP_Studio.avi
Формат : AVI
Формат/Информация : Audio Video Interleave
Размер файла : 1,46 Гбайт
Продолжительность : 1 ч. 39 м.
Общий поток : 2094 Кбит/сек
Программа кодирования : VirtualDubMod 1.5.10.3 | www.virtualdub-fr.org || (build 2550/release)
Библиотека кодирования : VirtualDubMod build 2550/release

Видео
Идентификатор : 0
Формат : MPEG-4 Visual
Профиль формата : Advanced Simple@L5
Параметр BVOP формата : 1
Параметр QPel формата : Нет
Параметр GMC формата : Без точки перехода
Параметр матрицы формата : Выборочная
Идентификатор кодека : XVID
Идентификатор кодека/Подсказка : XviD
Продолжительность : 1 ч. 39 м.
Битрейт : 1892 Кбит/сек
Ширина : 704 пикселя
Высота : 528 пикселей
Соотношение сторон : 4:3
Частота кадров : 25,000 кадров/сек
Цветовое пространство : YUV
Субдискретизация насыщенности : 4:2:0
Битовая глубина : 8 бит
Тип развёртки : Прогрессивная
Метод сжатия : С потерями
Бит/(Пиксели*Кадры) : 0.204
Размер потока : 1,32 Гбайт (90%)
Библиотека кодирования : XviD 73

Аудио
Идентификатор : 1
Формат : AC-3
Формат/Информация : Audio Coding 3
Расширение режима : CM (complete main)
Параметр Endianness формата : Big
Идентификатор кодека : 2000
Продолжительность : 1 ч. 39 м.
Вид битрейта : Постоянный
Битрейт : 192 Кбит/сек
Каналы : 2 канала
Расположение каналов : Front: L R
Частота : 48,0 КГц
Частота кадров : 31,250 кадров/сек (1536 spf)
Битовая глубина : 16 бит
Метод сжатия : С потерями
Размер потока : 137 Мбайт (9%)
Выравнивание : Разделение по промежуткам
Продолжительность промежутка : 40 мс. (1,00 видеокадр)
Время предзагрузки промежутка : 500 мс



Скачать Пролог через торрент http://s42.radikal.ru/i096/1701/4f/d0968efed756.png Скачать, смотреть онлайн Пролог бесплантно в хорошем качестве Описание:Об одном из эпизодов первой русской революции 1905 года. После жестокой расправы с мирной демонстрацией трудового народа под ... 5 10 1
Info! Золотая раздача, скачанное не засчитывается.
Торрент: Зарегистрирован [2017-01-22 22:09] · скачан: 9 раз
Статус: √ проверено
Размер: 1.46 GB
Как cкачать? Как скачать Пролог через торрент | UTorrent

% Раздел Тема Автор DL S | L
Кино СССР [ 1.46 GB ] Пролог | | Пролог (Ефим Дзиган AVP Studio Скачать
1 | 0
Кино СССР [ 746 MB ] Пролог | | Пролог (Ефим Дзиган AVP Studio Скачать
1 | 0

28-11-2019 20:33  


Отключить вcю реклaмy на сайте, в т.ч. и в плеере онлайн просмотра!

    Дорогой пользователь! Огромная просьба, поблагодарите релизера, оцените раздачу и оставьте свои комментарий, если Вы скачали Пролог через торрент бесплатно!!
    Комментировать посты могут только пользователи прошедшие не сложную регистрацию
    Показать сообщения:    


    Пролог через торрент
    Скачать бесплатно Пролог
    Пролог скачать торрент
    Пролог смотреть онлайн
    Cкачать фильм Пролог бесплатно
    Пролог скачать торрент в хорошем качестве
    Пролог смотреть онлайн бесплатно в хорошем качестве
    Вы не можете начинать темы
    Вы не можете отвечать на сообщения
    Вы не можете редактировать свои сообщения
    Вы не можете удалять свои сообщения
    Вы не можете голосовать в опросах
    Вы не можете прикреплять файлы к сообщениям
    Вы можете скачивать файлы