2 сезон

iTunes

MVO

1

2 сезон

iTunes

iTunes

1 сезон

RePack

30

Новинка

ВАЖНО

ИГРА 18+

pack

RePack

MK11
pack

Легкие деньги

RePack

jed

RePack

fifa19

RePack

RDR2

RePack

NEED FOR SPEED™ PAYBACK

4 сезон

9 сезон

Бесстыжие 9 сезон

Все сериалы

все сериалы на PB.wtf

RePack

FAR CRY 5

Anonymous, доброе утро, мы не успеваем собрать деньги на оплату серверов за декабрь и январь, помогите нам пожалуйста в это трудное время. В качестве благодарности мы отключим Вам всю рекламу на сайте (укажите свой ник в строку Ваше имя)!

×
  
Magnet ссылка

Частная жизнь Тюдоров / Private life of Tudors (Брюс Бюргесс) (Серии: 1-3 из 3) [2016 г., Документальный, постановочный, история, исследования, HDTVRip, Профессиональный одноголосый SDI Media] R.G.Resident piratbit.org

Скачать  

23-01-2017 11:48 Частная жизнь Тюдоров Скачать торрент  

Частная жизнь Тюдоров / Private life of Tudors
Год выпуска: 2016
Страна: Великобритания, Like A Shot Entertainment
Жанр: Документальный, постановочный, история, исследования
Продолжительность: 3 x ~ 00:44:00
Перевод: Профессиональный одноголосый [SDI Media]

Режиссер: Брюс Бюргесс

Описание: Многие слышали о Тюдорах, но кто, на самом деле, понимает и знает, какой была их жизнь? Трэйси Борман, эксперт по Тюдорам, исследует жизнь, страсти и скандалы одной из самых известных династий в истории Британии, от основателя Тюдоров - Генриха VII, чья красавица-жена Елизавета Йоркская забеременела во время брачной церемонии, до их неудержимого сына Генриха VIII, чья скандальная жизнь прогремела на всю Европу и разделила Англию на части. Главными героями передачи являются монархи, но не менее важной темой является личная жизнь их придворных. В центре внимания - двор, где секс и Влacть, отношение мужчин к женщинам да и сама архитектура создали атмосферу скандалов, разгоравшихся почти каждый день. Точная и атмосферная реконструкция помогают Трэйси вновь воссоздать то, что на самом деле происходило в залах, где Тюдоры и их придворные проводили свою жизнь.

Качество: HDTVRip
Формат: AVI
Видео кодек: XviD
Аудио кодек: AC3
Видео: 720x400 (1.80:1), 25 fps, XviD build 65 ~1549 kbps avg, 0.22 bit/pixel
Аудио#1: 48 kHz, AC3 Dolby Digital, 2/0 (L,R) ch, ~192.00 kbps avg
Релиз от: ruslanishe

General
Zhizn.tyudorov.XviD.2016.HDTVRip.R.G.Resident\001.avi
Format : AVI
Format/Info : Audio Video Interleave
File size : 550 MiB
Duration : 43mn 59s
Overall bit rate : 1 749 Kbps
Director : ruslanishe
Copyright : R.G.Resident

Video
ID : 0
Format : MPEG-4 Visual
Format profile : Advanced Simple@L5
Format settings, BVOP : 2
Format settings, QPel : No
Format settings, GMC : No warppoints
Format settings, Matrix : Custom
Codec ID : XVID
Codec ID/Hint : XviD
Duration : 43mn 59s
Bit rate : 1 549 Kbps
Width : 720 pixels
Height : 400 pixels
Display aspect ratio : 16:9
Frame rate : 25.000 fps
Color space : YUV
Chroma subsampling : 4:2:0
Bit depth : 8 bits
Scan type : Progressive
Compression mode : Lossy
Bits/(Pixel*Frame) : 0.215
Stream size : 487 MiB (89%)
Writing library : XviD 65

Audio
ID : 1
Format : AC-3
Format/Info : Audio Coding 3
Mode extension : CM (complete main)
Format settings, Endianness : Big
Codec ID : 2000
Duration : 43mn 59s
Bit rate mode : Constant
Bit rate : 192 Kbps
Channel(s) : 2 channels
Channel positions : Front: L R
Sampling rate : 48.0 KHz
Bit depth : 16 bits
Compression mode : Lossy
Stream size : 60.4 MiB (11%)
Alignment : Aligned on interleaves
Interleave, duration : 64 ms (1.60 video frames)
Interleave, preload duration : 192 ms
Title : Профессиональный (одноголосый)

piratbit.org



Скачать
Чтобы иметь возможность скачивать с Торрент Трекера, нужно Зарегистрироваться

Как скачивать  ·  Рейтинг и ограничения

28-11-2019 20:33  

Отключить всю рекламу на сайте

    Дорогой пользователь! Огромная просьба, поблагодарите релизера, оцените раздачу и оставьте свои комментарий, если Вы скачали Частная жизнь Тюдоров через торрент бесплатно! Внесите свою лепту в развитие PiratBit!
    Комментировать посты могут только пользователи прошедшие не сложную регистрацию
    Показать сообщения:    

    Частная жизнь Тюдоров через торрент
    Скачать бесплатно Частная жизнь Тюдоров
    Частная жизнь Тюдоров скачать торрент
    Частная жизнь Тюдоров смотреть онлайн
    Cкачать фильм Частная жизнь Тюдоров бесплатно
    Частная жизнь Тюдоров скачать торрент в хорошем качестве
    Частная жизнь Тюдоров смотреть онлайн бесплатно в хорошем качестве


    Вы не можете начинать темы
    Вы не можете отвечать на сообщения
    Вы не можете редактировать свои сообщения
    Вы не можете удалять свои сообщения
    Вы не можете голосовать в опросах
    Вы не можете прикреплять файлы к сообщениям
    Вы не можете скачивать файлы