2 сезон

iTunes

MVO

1

2 сезон

iTunes

iTunes

1 сезон

RePack

30

Новинка

ВАЖНО

ИГРА 18+

pack

RePack

MK11
pack

Легкие деньги

RePack

jed

RePack

fifa19

RePack

RDR2

RePack

NEED FOR SPEED™ PAYBACK

4 сезон

9 сезон

Бесстыжие 9 сезон

Все сериалы

все сериалы на PB.wtf

RePack

FAR CRY 5

Anonymous, доброй ночи, мы не успеваем собрать деньги на оплату серверов за декабрь и январь, помогите нам пожалуйста в это трудное время. В качестве благодарности мы отключим Вам всю рекламу на сайте (укажите свой ник в строку Ваше имя)!

×
  
Magnet ссылка

Новые русские сенсации (Ванга. Пророчества 2017) (Денис Бугаев) [2017, документальный, HDTVRip-AVC] Не требуется [Русский] от R.G.Resident piratbit.org

Скачать  

23-01-2017 14:26 Новые русские сенсации Скачать торрент  

Новые русские сенсации (Ванга. Пророчества 2017)


Год выпуска: 2017
Страна: Россия
Жанр: документальный
Продолжительность: 00:45:06
Перевод: Не требуется [Русский]
Режиссер: Денис Бугаев
Описание:
Китай станет новой сверхдержавой, чужестранец будет править Европой, а в мире появится новая смертельная болезнь. Что еще видела Ванга в 2017-м и что предрекала России в год столетия революции?

Качество: HDTVRip-AVC исходник HDTV 1080P by ruslanishe Rip by
Формат: MKV
Видео: AVC, 1024x590 (1.736), 1974 kbps, 25 fps, 0,131 bpp
Аудио: AC3 / 2.0 / 48 kHz / 192 kbps /

General
Unique ID : 218325785354938057186193006361915502005 (0xA440044AB0E28034BC51E762A3A52DB5)
Complete name : E:\Новые русские сенсации.Ванга пророчества 2017.HDTVRip-AVC.by.White Smoke.R.G.Resident.mkv
Format : Matroska
Format version : Version 4 / Version 2
File size : 699 MiB
Duration : 45 min
Overall bit rate : 2 168 kb/s
Movie name : Новые русские сенсации.Ванга пророчества 2017.HDTVRip-AVC.by.White Smoke.R.G.Resident.mkv
Encoded date : UTC 2017-01-23 13:31:52
Writing application : mkvmerge v6.8.0 ('Theme for Great Cities') 64bit built on Mar 2 2014 21:34:26
Writing library : libebml v1.3.0 + libmatroska v1.4.1

Video
ID : 1
Format : AVC
Format/Info : Advanced Video Codec
Format profile : High@L4.1
Format settings, CABAC : Yes
Format settings, ReFrames : 12 frames
Codec ID : V_MPEG4/ISO/AVC
Duration : 45 min
Bit rate : 1 974 kb/s
Width : 1 024 pixels
Height : 590 pixels
Display aspect ratio : 1.736
Frame rate mode : Constant
Frame rate : 25.000 FPS
Color space : YUV
Chroma subsampling : 4:2:0
Bit depth : 8 bits
Scan type : Progressive
Bits/(Pixel*Frame) : 0.131
Stream size : 623 MiB (89%)
Writing library : x264 core 148 r2638 7599210
Encoding settings : cabac=1 / ref=12 / deblock=1:-2:-1 / analyse=0x3:0x113 / me=umh / subme=11 / psy=1 / psy_rd=0.00:0.15 / mixed_ref=1 / me_range=32 / chroma_me=1 / trellis=2 / 8x8dct=1 / cqm=0 / deadzone=21,11 / fast_pskip=0 / chroma_qp_offset=-3 / threads=6 / lookahead_threads=1 / sliced_threads=0 / nr=0 / decimate=0 / interlaced=0 / bluray_compat=0 / constrained_intra=0 / bframes=12 / b_pyramid=2 / b_adapt=2 / b_bias=0 / direct=1 / weightb=0 / open_gop=0 / weightp=2 / keyint=240 / keyint_min=23 / scenecut=40 / intra_refresh=0 / rc_lookahead=40 / rc=2pass / mbtree=1 / bitrate=1974 / ratetol=1.0 / qcomp=0.70 / qpmin=0 / qpmax=69 / qpstep=4 / cplxblur=20.0 / qblur=0.5 / vbv_maxrate=50000 / vbv_bufsize=65500 / nal_hrd=none / filler=0 / ip_ratio=1.40 / aq=1:1.00
Default : Yes
Forced : No
Statistics Tags Issue : mkvmerge v7.0.0 ('Where We Going') 32bit built on Jun 9 2014 15:08:34 2017-01-23 01:20:08 / mkvmerge v6.8.0 ('Theme for Great Cities') 64bit built on Mar 2 2014 21:34:26 2017-01-23 13:31:52
FromStats_BitRate : 1974034
FromStats_Duration : 00:45:05.920000000
FromStats_FrameCount : 67648
FromStats_StreamSize : 667697358

Audio
ID : 2
Format : AC-3
Format/Info : Audio Coding 3
Mode extension : CM (complete main)
Format settings, Endianness : Big
Codec ID : A_AC3
Duration : 45 min
Bit rate mode : Constant
Bit rate : 192 kb/s
Channel(s) : 2 channels
Channel positions : Front: L R
Sampling rate : 48.0 kHz
Frame rate : 31.250 FPS (1536 spf)
Compression mode : Lossy
Stream size : 61.9 MiB (9%)
Default : Yes
Forced : No

© Оформление by White Smoke
Рекламы нетpiratbit.org



Скачать
Чтобы иметь возможность скачивать с Торрент Трекера, нужно Зарегистрироваться

Как скачивать  ·  Рейтинг и ограничения

28-11-2019 20:33  

Отключить всю рекламу на сайте

23-01-2017 14:48 Новые русские сенсации Скачать торрент  

НТВэшников, а также Прокопенко, ждёт отдельное местечко в аду piratbit.org



    Дорогой пользователь! Огромная просьба, поблагодарите релизера, оцените раздачу и оставьте свои комментарий, если Вы скачали Новые русские сенсации через торрент бесплатно! Внесите свою лепту в развитие PiratBit!
    Комментировать посты могут только пользователи прошедшие не сложную регистрацию
    Показать сообщения:    

    Новые русские сенсации через торрент
    Скачать бесплатно Новые русские сенсации
    Новые русские сенсации скачать торрент
    Новые русские сенсации смотреть онлайн
    Cкачать фильм Новые русские сенсации бесплатно
    Новые русские сенсации скачать торрент в хорошем качестве
    Новые русские сенсации смотреть онлайн бесплатно в хорошем качестве


    Вы не можете начинать темы
    Вы не можете отвечать на сообщения
    Вы не можете редактировать свои сообщения
    Вы не можете удалять свои сообщения
    Вы не можете голосовать в опросах
    Вы не можете прикреплять файлы к сообщениям
    Вы не можете скачивать файлы