1 сезон

3 сезон

iTunes

1

iTunes

DUB Netflix

iTunes

13

1 сезон

RePack

30

Deluxe

pack

Легкие деньги

ВАЖНО

ИГРА 18+

pack

RePack

MK11

RePack

jed

RePack

fifa19

RePack

RDR2

RePack

NEED FOR SPEED™ PAYBACK

4 сезон

9 сезон

Бесстыжие 9 сезон

Все сериалы

все сериалы на PB.wtf

RePack

FAR CRY 5

Anonymous, доброе утро, мы не успеваем до 1 числа собрать деньги на оплату серверов, помогите нам пожалуйста в это трудное время. В качестве благодарности мы отключим Вам всю рекламу на сайте (укажите свой ник в строку Ваше имя)!

×
  
Magnet ссылка

Джек Ричер 2: Никогда не возвращайся / Jack Reacher: Never Go Back (Эдвард Цвик) [2016 г., Боевик, триллер, криминал, детектив, BDRip, Дубляж BD CEE] piratbit.org

Джек Ричер 2: Никогда не возвращайся через торрент piratbit.org

Размер: 1.46 GB | Добавлен: 4 года 4 мес. назад | Торрент скачан:115 раз
Скачать  

26-01-2017 07:35 Джек Ричер 2: Никогда не возвращайся Скачать торрент  

Джек Ричер 2: Никогда не возвращайся / Jack Reacher: Never Go Back
Год выпуска: 2016
Страна: США,Китай
Жанр: Боевик, триллер, криминал, детектив
Продолжительность: 01:58:08
Перевод: Дубляж BD CEE
Субтитры: Русские форсированные (отдельно)

Режиссер: Эдвард Цвик

Бюджет: $60 000 000
Премьера в мире: 19 октября 2016,

rating

В ролях: Том Круз, Коби Смолдерс, Роберт Неппер, Даника Ярош, Нинджа Н. Деву, Элдис Ходж, Холт МакКэллани, Мэдалин Хорчер, Чейз Савой, Сью-Линн Ансари

Описание: Джек Ричер решил взять передышку и вернуться в родное 110-е подразделение военной полиции, где он когда-то был начальником. Тем более у него есть дополнительный интерес — действующий командир части, майор Сьюзан Тернер. Именно майор Тернер выручила его, сообщая своим волнующим голосом по телефону ценную информацию, которая помогла Джеку Ричеру выпутаться из серьезных неприятностей. И вот теперь у него есть возможность поблагодарить коллегу лично. Вот только оказавшись в расположении части, Ричер узнает, что буквально на днях Сьюзан арестовали за получение крупной взятки. А его самого обвинили в убийстве шестнадцатилетней давности, о событиях которого он ничего не помнит. Странное совпадение или чей-то злой умысел? Возвращение в место, где когда-то было хорошо и относительно спокойно, оборачивается новыми неприятностями и приключениями.

Качество: BDRip
Формат: AVI
Видео кодек: XviD
Аудио кодек: AC3
Видео: XviD ,720x304, 23.976 fps, 1310 Кбит/с
Аудио: AC3,448 kb/s, 6 ch, 48.0 KHz - русский



General
Complete name : H:\релизы.торрентфайл\Jack.Reacher.Never.Go.Back.2016.BDRip.1.46Gb.Dub.MegaPeer\Jack.Reacher.Never.Go.Back.2016.BDRip.1.46Gb.Dub.MegaPeer.avi
Format : AVI
Format/Info : Audio Video Interleave
File size : 1.46 GiB
Duration : 1h 58mn
Overall bit rate : 1 766 Kbps

Video
ID : 0
Format : MPEG-4 Visual
Format profile : Advanced Simple@L5
Format settings, BVOP : 1
Format settings, QPel : No
Format settings, GMC : No warppoints
Format settings, Matrix : Custom
Codec ID : XVID
Codec ID/Hint : XviD
Duration : 1h 58mn
Bit rate : 1 311 Kbps
Width : 720 pixels
Height : 304 pixels
Display aspect ratio : 2.35:1
Frame rate : 23.976 fps
Color space : YUV
Chroma subsampling : 4:2:0
Bit depth : 8 bits
Scan type : Progressive
Compression mode : Lossy
Bits/(Pixel*Frame) : 0.250
Stream size : 1.08 GiB (74%)
Writing library : XviD 73

Audio
ID : 1
Format : AC-3
Format/Info : Audio Coding 3
Mode extension : CM (complete main)
Format settings, Endianness : Big
Codec ID : 2000
Duration : 1h 58mn
Bit rate mode : Constant
Bit rate : 448 Kbps
Channel(s) : 6 channels
Channel positions : Front: L C R, Side: L R, LFE
Sampling rate : 48.0 KHz
Bit depth : 16 bits
Compression mode : Lossy
Stream size : 379 MiB (25%)
Alignment : Aligned on interleaves
Interleave, duration : 64 ms (1.53 video frames)
Interleave, preload duration : 192 ms
Title : BD CEE

piratbit.org



Скачать Джек Ричер 2: Никогда не возвращайся через торрент https://pic1.kartinco.top/images/11/5ri6d.jpg Скачать фильм Джек Ричер 2: Никогда не возвращайся через торрент бесплантно в хорошем качестве Описание: Джек Ричер решил взять передышку и вернуться в родное 110-е подразделение военной полиции, где он когда-то был начальником. Тем ... 10 10 3
Торрент: Зарегистрирован [2017-01-26 07:35] · скачан: 115 раз
Статус: √ проверено
Размер: 1.46 GB
Как cкачать? Как скачать Джек Ричер 2: Никогда не возвращайся через торрент | UTorrent

% Раздел Тема Автор DL S | L
Фильмы [HD 720p, 1080p] (Хороший звук DUB, MVO) [ 11.01 GB ] Джек Ричер 2: Никогда не возвращайся / Jack Reacher: Never Go Back [2016 BDRip 1080p] DUB + 4хAVO - KORSAR kisa1980 Скачать
1 | 0
Ultra HD (UHD: 2K, 4K, 8K) — видео сверхвысокой чёткости [ 58.42 GB ] Джек Ричер 2: Никогда не возвращайся / Jack Reacher: Never Go Back [2016 UHD BDRemux 2160p] DUB + 4xAVO [] sheker187 Скачать
1 | 0
Фильмы (Blu-ray, BD-Remux, HDDVD) [ 27.06 GB ] Джек Ричер 2: Никогда не возвращайся / Jack Reacher: Never Go Back [2016 BD Remux 1080p] [] DUB+AVO bober100 Скачать
1 | 0
Фильмы 2016 [DVDrip, WEB-DLRip, HDrip] (DUB, MVO) [ 4.02 GB ] Джек Ричер 2: Никогда не возвращайся / Jack Reacher: Never Go Back [2016 BDRip-AVC] - [] 4xAVO - ExKinoRay Enigma2010 Скачать
1 | 0
Фильмы [HD 720p, 1080p] (Хороший звук DUB, MVO) [ 5.76 GB ] Джек Ричер 2: Никогда не возвращайся / Jack Reacher: Never Go Back [2016 BDRip 720p] potroks Скачать
1 | 0
Ultra HD (UHD: 2K, 4K, 8K) — видео сверхвысокой чёткости [ 45.87 GB ] Джек Ричер 2: Никогда не возвращайся / Jack Reacher: Never Go Back [2016 UHD WEBRip 2160p] - [] sheker187 Скачать
1 | 0
Фильмы (Blu-ray, BD-Remux, HDDVD) [ 23.52 GB ] Джек Ричер 2: Никогда не возвращайся / Jack Reacher: Never Go Back [2016 экранизация BDRemux 1080p] / Russian Mafia Скачать
1 | 0

28-11-2019 20:33  

Отключить всю рекламу на сайте

    Дорогой пользователь! Огромная просьба, поблагодарите релизера, оцените раздачу и оставьте свои комментарий, если Вы скачали Джек Ричер 2: Никогда не возвращайся через торрент бесплатно! Внесите свою лепту в развитие PiratBit!
    Комментировать посты могут только пользователи прошедшие не сложную регистрацию
    Показать сообщения:    

    Джек Ричер 2: Никогда не возвращайся через торрент
    Скачать бесплатно Джек Ричер 2: Никогда не возвращайся
    Джек Ричер 2: Никогда не возвращайся скачать торрент
    Джек Ричер 2: Никогда не возвращайся смотреть онлайн
    Cкачать фильм Джек Ричер 2: Никогда не возвращайся бесплатно
    Джек Ричер 2: Никогда не возвращайся скачать торрент в хорошем качестве
    Джек Ричер 2: Никогда не возвращайся смотреть онлайн бесплатно в хорошем качестве


    Вы не можете начинать темы
    Вы не можете отвечать на сообщения
    Вы не можете редактировать свои сообщения
    Вы не можете удалять свои сообщения
    Вы не можете голосовать в опросах
    Вы не можете прикреплять файлы к сообщениям
    Вы можете скачивать файлы