1 сезон

3 сезон

iTunes

1

iTunes

DUB Netflix

iTunes

13

1 сезон

RePack

30

Deluxe

pack

Легкие деньги

ВАЖНО

ИГРА 18+

pack

RePack

MK11

RePack

jed

RePack

fifa19

RePack

RDR2

RePack

NEED FOR SPEED™ PAYBACK

4 сезон

9 сезон

Бесстыжие 9 сезон

Все сериалы

все сериалы на PB.wtf

RePack

FAR CRY 5

Anonymous, добрый день, мы не успеваем до 1 числа собрать деньги на оплату серверов, помогите нам пожалуйста в это трудное время. В качестве благодарности мы отключим Вам всю рекламу на сайте (укажите свой ник в строку Ваше имя)!

×
  
Magnet ссылка

Таймлесс 3: Изумрудная книга / Smaragdgrün (Феликс Фуксштайнер, Катарина Шёде) [2016 г., Фэнтези, HDRip, Профессиональный (многоголосый)[iTunes]] piratbit.org

Таймлесс 3: Изумрудная книга через торрент piratbit.org

Размер: 1.37 GB | Добавлен: 4 года 4 мес. назад | Торрент скачан:723 раза
Скачать  

29-01-2017 05:37 Таймлесс 3: Изумрудная книга Скачать торрент  

Таймлесс 3: Изумрудная книга / Smaragdgrün
Год выпуска: 2016
Страна: Германия
Жанр: Фэнтези
Продолжительность: 01:52:09
Перевод: Профессиональный (многоголосый)[iTunes]
Субтитры: Отсутствуют

Режиссер: Феликс Фуксштайнер, Катарина Шёде

Премьера в мире: 24 июня 2016

rating

В ролях: Мария Эрих, Яннис Нивёнер, Лаура Берлин, Йозефина Пройсс, Рольф Канис, Флориан Бартоломай, Руфус Бек, Буц Бузе, Юстина дель Корте, Тимур Исик

Описание: Что делать, если твое сердце разбито, а чувства растоптаны? Часами болтать по телефону с лучшей подругой? Есть шоколад и валяться в кровати, обливаясь слезами? Как жаль, что у Гвендолин совершенно нет на это времени. А все потому, что на семнадцатом году жизни у нее совершенно случайно обнаружился ген путешественника во времени. Голова идет кругом: хронограф, круг крови, Тайна Двенадцати, все эти балы, суаре, схватки и путешествия по темным лабиринтам прошлого, а теперь еще кто-то за ней охотится, и единственное, о чем ей действительно стоит думать, так это о том, чтобы выжить! Все нити ведут в прошлое, к таинственному графу Сен-Жермену, который ведет опасную игру, чтобы заполучить источник вечной жизни. А тут разбитое сердце! Гидеон, кто же ты — друг или враг? Что значат твои признания в любви — шутка, разыгранный как по нотам план графа или все же настоящее чувство? Разгадать все тайны Гвендолин помогут ее верные друзья.

Качество: HDRip
Формат: AVI
Видео кодек: XviD
Аудио кодек: AC3
Видео: XviD,720x304, 24.000 fps, 1352 Kbps
Аудио: AC3,384 kbs, 2 ch, 48.0 KHz



General
Complete name : H:\релизы.торрентфайл\TaimLess.3.IZumRud.2O16.P.HDRip.14OOMB.avi
Format : AVI
Format/Info : Audio Video Interleave
File size : 1.37 GiB
Duration : 1h 52mn
Overall bit rate : 1 745 Kbps
Writing application : VirtualDubMod 1.5.10.2 (build 2540/release)
Writing library : VirtualDubMod build 2540/release

Video
ID : 0
Format : MPEG-4 Visual
Format profile : Advanced Simple@L5
Format settings, BVOP : 2
Format settings, QPel : No
Format settings, GMC : No warppoints
Format settings, Matrix : Default (MPEG)
Codec ID : XVID
Codec ID/Hint : XviD
Duration : 1h 52mn
Bit rate : 1 352 Kbps
Width : 720 pixels
Height : 304 pixels
Display aspect ratio : 2.35:1
Frame rate : 24.000 fps
Color space : YUV
Chroma subsampling : 4:2:0
Bit depth : 8 bits
Scan type : Progressive
Compression mode : Lossy
Bits/(Pixel*Frame) : 0.257
Stream size : 1.06 GiB (77%)
Writing library : XviD 1.2.1 (UTC 2008-12-04)

Audio
ID : 1
Format : AC-3
Format/Info : Audio Coding 3
Mode extension : CM (complete main)
Format settings, Endianness : Big
Codec ID : 2000
Duration : 1h 52mn
Bit rate mode : Constant
Bit rate : 384 Kbps
Channel(s) : 2 channels
Channel positions : Front: L R
Sampling rate : 48.0 KHz
Bit depth : 16 bits
Compression mode : Lossy
Stream size : 308 MiB (22%)
Alignment : Split accross interleaves
Interleave, duration : 42 ms (1.00 video frame)
Interleave, preload duration : 500 ms

piratbit.org



Скачать Таймлесс 3: Изумрудная книга через торрент http://i91.fastpic.ru/big/2017/0129/02/d9a28ee957959be47f316cd05ed4c902.png Скачать фильм Таймлесс 3: Изумрудная книга через торрент бесплантно в хорошем качестве Описание: Что делать, если твое сердце разбито, а чувства растоптаны? Часами болтать по телефону с лучшей подругой? Есть шоколад и валяться ... 9.2 10 14
Торрент: Зарегистрирован [2017-01-29 05:37] · скачан: 723 раз
Статус: T временная
Размер: 1.37 GB
Как cкачать? Как скачать Таймлесс 3: Изумрудная книга через торрент | UTorrent

28-11-2019 20:33  

Отключить всю рекламу на сайте


29-01-2017 06:47 Таймлесс 3: Изумрудная книга Скачать торрент  

самая убогая часть, треть держался и просто промотал! полный шлак piratbit.org



    Дорогой пользователь! Огромная просьба, поблагодарите релизера, оцените раздачу и оставьте свои комментарий, если Вы скачали Таймлесс 3: Изумрудная книга через торрент бесплатно! Внесите свою лепту в развитие PiratBit!
    Комментировать посты могут только пользователи прошедшие не сложную регистрацию
    Показать сообщения:    

    Таймлесс 3: Изумрудная книга через торрент
    Скачать бесплатно Таймлесс 3: Изумрудная книга
    Таймлесс 3: Изумрудная книга скачать торрент
    Таймлесс 3: Изумрудная книга смотреть онлайн
    Cкачать фильм Таймлесс 3: Изумрудная книга бесплатно
    Таймлесс 3: Изумрудная книга скачать торрент в хорошем качестве
    Таймлесс 3: Изумрудная книга смотреть онлайн бесплатно в хорошем качестве


    Вы не можете начинать темы
    Вы не можете отвечать на сообщения
    Вы не можете редактировать свои сообщения
    Вы не можете удалять свои сообщения
    Вы не можете голосовать в опросах
    Вы не можете прикреплять файлы к сообщениям
    Вы можете скачивать файлы