Доктор Стрэндж

Лицензия

Добыча

MVO

Дом дракона

1 сезон

Тор

Лицензия

Мэверик

Лицензия

Там, где раки поют

MVO

Властелин колец

1 сезон

Ultimate

pack

Рекомендуем

30

Repack

ВАЖНО

ВАЖНО

Ghostwire

RePack

jed

RePack

nioh2

RePack

RDR2

RePack

NEED FOR SPEED™ PAYBACK

RePack

скачать торрент

Кинопоиск HD

Острые козырьки 6 сезон

6 сезон

FAR CRY 6

RePack

скачать торрент

Лицензия

скачать торрент

MVO

1

1 сезон

скачать торрент

1 сезон

скачать торрент

Лицензия

  

Это начиналось так... (Лев Кулиджанов, Яков Сегель) [1956, СССР, драма, SATRip от AVP Studio]

Это начиналось так... через торрент piratbit.org

Размер: 745 MB | Добавлен: 5 лет 8 мес. назад | Торрент скачан:20 раз
Смотреть онлайн Это начиналось так... | Скачать   

29-01-2017 10:32 Это начиналось так... Скачать торрент  

Это начиналось так...
Страна: СССР
Производство: Киностудия им. Горького

Жанр: драма
Год выпуска: 1956
Продолжительность: 01:32:20

Перевод: Не требуется
Cубтитры: нет
Оригинальная аудиодорожка: русский

Режиссер: Лев Кулиджанов, Яков Сегель

В ролях:
Владимир Емельянов, Валентин Зубков, Алексей Егоров, Лилиана Алешникова, Николай Довженко, Наталья Павлова (III), Владимир Ратомский, Ролан Быков, Борис Лифанов (III), Ольга Короткевич, Владимир Лебедев, Николай Сморчков, Борис Баташев, Ольга Аросева, Юрий Архипцев, Валериан Калинин...
Об актёрах подробней

Описание:
На целинные казахские степи прибывает московская группа комсомольцев и сразу же сталкивается с бюрократизмом и безалаберностью. Кто-то бежит из совхоза на более верные заработки, а кто-то просто не хочет работать. Но появляется новый энергичный директор и начинается настоящая жизнь...

Источник: DVB
Качество видео: SATRip
Формат видео: AVI

Видео: 576x432 (4:3), 25 fps, XviD ~ 991 kbps avg, 0.159 bit/pixel
Аудио: 48 kHz, MP3 2.0, 128 kbps

Раздача от:
Общее
Полное имя : Yeto.nachinalos.tak...1956.SATRip-745_[New-team]_by_AVP_Studio.avi
Формат : AVI
Формат/Информация : Audio Video Interleave
Размер файла : 745 Мбайт
Продолжительность : 1 ч. 32 м.
Общий поток : 1129 Кбит/сек
Программа кодирования : VirtualDubMod 1.5.10.3 | www.virtualdub-fr.org || (build 2550/release)
Библиотека кодирования : VirtualDubMod build 2550/release

Видео
Идентификатор : 0
Формат : MPEG-4 Visual
Профиль формата : Advanced Simple@L5
Параметр BVOP формата : 1
Параметр QPel формата : Нет
Параметр GMC формата : Без точки перехода
Параметр матрицы формата : Выборочная
Идентификатор кодека : XVID
Идентификатор кодека/Подсказка : XviD
Продолжительность : 1 ч. 32 м.
Битрейт : 991 Кбит/сек
Ширина : 576 пикселей
Высота : 432 пикселя
Соотношение сторон : 4:3
Частота кадров : 25,000 кадров/сек
Цветовое пространство : YUV
Субдискретизация насыщенности : 4:2:0
Битовая глубина : 8 бит
Тип развёртки : Прогрессивная
Метод сжатия : С потерями
Бит/(Пиксели*Кадры) : 0.159
Размер потока : 654 Мбайт (88%)
Библиотека кодирования : XviD 73

Аудио
Идентификатор : 1
Формат : MPEG Audio
Версия формата : Version 1
Профиль формата : Layer 3
Идентификатор кодека : 55
Идентификатор кодека/Подсказка : MP3
Продолжительность : 1 ч. 32 м.
Вид битрейта : Постоянный
Битрейт : 128 Кбит/сек
Каналы : 2 канала
Частота : 48,0 КГц
Метод сжатия : С потерями
Размер потока : 84,5 Мбайт (11%)
Выравнивание : Соединение по промежуткам
Продолжительность промежутка : 40 мс. (1,00 видеокадр)
Время предзагрузки промежутка : 504 мс.
Библиотека кодирования : LAME3.99r
Настройки программы : -m s -V 4 -q 2 -lowpass 17 -b 128



Скачать Это начиналось так... через торрент http://s020.radikal.ru/i711/1701/d6/e8cb427f0af3.png Скачать, смотреть онлайн Это начиналось так... бесплантно в хорошем качестве Описание:На целинные казахские степи прибывает московская группа комсомольцев и сразу же сталкивается с бюрократизмом и безалаберностью. ... 10 10 1
Info! Золотая раздача, скачанное не засчитывается.
Торрент: Зарегистрирован [2017-01-29 10:32] · скачан: 20 раз
Статус: √ проверено
Размер: 745 MB
Как cкачать? Как скачать Это начиналось так... через торрент | UTorrent

% Раздел Тема Автор DL S | L
Кино СССР [ 1.46 GB ] Это начиналось так... | | SATRip-AVC от AVP Studio AVP Studio Скачать
1 | 0
Кино СССР [ 1.46 GB ] Это начиналось так... | | SATRip от AVP Studio AVP Studio Скачать
1 | 0

28-11-2019 20:33  

Отключить вcю реклaмy на сайте

    Дорогой пользователь! Огромная просьба, поблагодарите релизера, оцените раздачу и оставьте свои комментарий, если Вы скачали Это начиналось так... через торрент бесплатно!!
    Комментировать посты могут только пользователи прошедшие не сложную регистрацию
    Показать сообщения:    


    Это начиналось так... через торрент
    Скачать бесплатно Это начиналось так...
    Это начиналось так... скачать торрент
    Это начиналось так... смотреть онлайн
    Cкачать фильм Это начиналось так... бесплатно
    Это начиналось так... скачать торрент в хорошем качестве
    Это начиналось так... смотреть онлайн бесплатно в хорошем качестве
    Вы не можете начинать темы
    Вы не можете отвечать на сообщения
    Вы не можете редактировать свои сообщения
    Вы не можете удалять свои сообщения
    Вы не можете голосовать в опросах
    Вы не можете прикреплять файлы к сообщениям
    Вы можете скачивать файлы