2 сезон

iTunes

WEBRip

1

2 сезон

iTunes

1 сезон

1 сезон

RePack

30

Новинка

ВАЖНО

ИГРА 18+

pack

RePack

MK11
pack

Легкие деньги

RePack

jed

RePack

fifa19

RePack

RDR2

RePack

NEED FOR SPEED™ PAYBACK

4 сезон

9 сезон

Бесстыжие 9 сезон

Все сериалы

все сериалы на PB.wtf

RePack

FAR CRY 5

Anonymous, доброй ночи, мы не успеваем собрать деньги на оплату серверов за февраль, помогите нам пожалуйста в это трудное время. В качестве благодарности мы отключим Вам всю рекламу на сайте (укажите свой ник в строку Ваше имя)!

×
  
Magnet ссылка

Человек в высоком замке / The Man in the High Castle / Сезон: 2 / Серии: 1-10 (10) (Дэвид Семел) [2016, фантастика, триллер, драма, WEBRip] [Ukr MVO] piratbit.org

Человек в высоком замке через торрент piratbit.org

Размер: 8.72 GB | Добавлен: 4 года назад | Торрент скачан:18 раз
Скачать  

29-01-2017 14:30 Человек в высоком замке Скачать торрент  

Человек в высоком замке / Людина у високому замку / The Man in the High Castle
Год выпуска: 2016
Страна: США
Жанр: фантастика, триллер, драма
Продолжительность: 1x ~ 00:59:00
Перевод: Украинский (профессиональный, многоголосый)
Cубтитры: нет

Режиссер: Дэвид Семел / David Semel

В ролях: Алекса Давалос, Руперт Эванс, Люк Клеинтенк, DJ Куаллс, Джоэль де ла Фуэнте, Кэри-Хироюки Тагава, Руфус Сьюэлл, Майкл Рисполи, Джеффри Блейк, Бернхард Форхер

Описание:
Экранизация одноименной книги Филипа К. Дика про альтернативное будущее, пятнадцать лет спустя после победы гитлеровской коалиции во Второй мировой войне и капитуляции США перед Германией и Японией... Германия и Япония выиграли Вторую мировую. Америка разделена пополам между победителями, но спустя много лет после поражения (действие разворачивается в 1962-м) сознательные американцы организуют глубоко засекреченное подполье. Занимаются повстанцы в основном распространением странной кинохроники, на которой показана победа в войне союзнических войск. Именно с этими пленками в руках в нейтральную зону между двумя Америками отправляются Джо и Джулс — юноша и девушка, пробующие свои силы в борьбе с режимом.



Качество: WEBRip
Формат: AVI
Видео кодек: XvID
Аудио кодек: AC3
Видео: 720x400 (1.80:1), 23.976 fps, XviD MPEG-4 ~1420 kbps avg, 0.21 bit/pixel
Аудио: 48 kHz, AC3 Dolby Digital, 3/2 (L,C,R,l,r) + LFE ch, ~640.00 kbps avg

Релиз --
General
Complete name : E:\The Man In The High Castle (Season 2) WEBRip\The.Man.in.the.High.Castle.S02E01.WEBRip.UKR.DontStopProd.avi
Format : AVI
Format/Info : Audio Video Interleave
File size : 845 MiB
Duration : 57mn 4s
Overall bit rate : 2 070 Kbps
Movie name : The.Man.in.the.High.Castle.S02E01.WEBRip.Rus.Eng.DV.NewStudio / NNM-Club
Writing application : VirtualDubMod 1.5.10.2 (build 2542/release)
Writing library : VirtualDubMod build 2542/release

Video
ID : 0
Format : MPEG-4 Visual
Format profile : Advanced Simple@L5
Format settings, BVOP : 2
Format settings, QPel : Yes
Format settings, GMC : No warppoints
Format settings, Matrix : Default (MPEG)
Muxing mode : Packed bitstream
Codec ID : XVID
Codec ID/Hint : XviD
Duration : 57mn 4s
Bit rate : 1 339 Kbps
Width : 720 pixels
Height : 400 pixels
Display aspect ratio : 16:9
Frame rate : 23.976 fps
Color space : YUV
Chroma subsampling : 4:2:0
Bit depth : 8 bits
Scan type : Progressive
Compression mode : Lossy
Bits/(Pixel*Frame) : 0.194
Stream size : 547 MiB (65%)
Writing library : XviD 73

Audio
ID : 1
Format : AC-3
Format/Info : Audio Coding 3
Mode extension : CM (complete main)
Format settings, Endianness : Big
Codec ID : 2000
Duration : 57mn 4s
Bit rate mode : Constant
Bit rate : 640 Kbps
Channel(s) : 6 channels
Channel positions : Front: L C R, Side: L R, LFE
Sampling rate : 48.0 KHz
Compression mode : Lossy
Stream size : 261 MiB (31%)
Alignment : Split accross interleaves
piratbit.org



Скачать Человек в высоком замке через торрент http://i83.fastpic.ru/big/2016/1216/4b/f5a4f2511c55d6f5df0ef2a19fd3d04b.jpg Скачать фильм Человек в высоком замке через торрент бесплантно в хорошем качестве Описание:Экранизация одноименной книги Филипа К. Дика про альтернативное будущее, пятнадцать лет спустя после победы гитлеровской коалиции ... 8.2 10 5
Торрент: Зарегистрирован [2017-01-29 14:30] · скачан: 18 раз
Статус: √ проверено
Размер: 8.72 GB
Как cкачать? Как скачать Человек в высоком замке через торрент | UTorrent

% Раздел Тема Автор DL S | L
Фильмы с украинским озвучиванием [ 90.08 GB ] Человек в высоком замке / The Man in the High Castle / Сезон: 2 / Серии: 1-10 из 10 [2016 WEBRip 2160p] [Ukr MVO] killermax2013 Скачать
1 | 0
Зарубежные сериалы [ 7.42 GB ] Человек в высоком замке / The Man in the High Castle / Сезон 2 / Серии 1-10 из 10 [2016 WEBRip] MVO [NewStudio] bober100 Скачать
1 | 0
Зарубежные сериалы [ 6.95 GB ] Человек в высоком замке / The Man in the High Castle / Сезон: 2 / Серии: 1-10 [2016 WEBRip] [MVO] killermax2013 Скачать
1 | 0
Зарубежные сериалы [ 89.09 GB ] Человек в высоком замке / The Man in the High Castle / Сезон: 2 / Серии: 1-10 [2016 WEBRip 2160p] [MVO] killermax2013 Скачать
1 | 0
Зарубежные сериалы [ 48.67 GB ] Человек в высоком замке / The Man in the High Castle / Сезон: 2 / Серии: 1-10 [2016 WEBRip 1080p] [MVO] killermax2013 Скачать
1 | 0
Зарубежные сериалы [ 14.07 GB ] Человек в высоком замке / The Man in the High Castle / Сезон: 2 / Серии: 1-10 [2016 WEBRip 720p] [MVO] killermax2013 Скачать
1 | 0
Зарубежные сериалы [ 49.67 GB ] Человек в высоком замке / The Man in the High Castle / Сезон: 2 / Серии: 1-10 [2016 WEBRip 1080p] [MVO] killermax2013 Скачать
1 | 0

28-11-2019 20:33  

Отключить всю рекламу на сайте

    Дорогой пользователь! Огромная просьба, поблагодарите релизера, оцените раздачу и оставьте свои комментарий, если Вы скачали Человек в высоком замке через торрент бесплатно! Внесите свою лепту в развитие PiratBit!
    Комментировать посты могут только пользователи прошедшие не сложную регистрацию
    Показать сообщения:    

    Человек в высоком замке через торрент
    Скачать бесплатно Человек в высоком замке
    Человек в высоком замке скачать торрент
    Человек в высоком замке смотреть онлайн
    Cкачать фильм Человек в высоком замке бесплатно
    Человек в высоком замке скачать торрент в хорошем качестве
    Человек в высоком замке смотреть онлайн бесплатно в хорошем качестве


    Вы не можете начинать темы
    Вы не можете отвечать на сообщения
    Вы не можете редактировать свои сообщения
    Вы не можете удалять свои сообщения
    Вы не можете голосовать в опросах
    Вы не можете прикреплять файлы к сообщениям
    Вы можете скачивать файлы