2 сезон

iTunes

WEBRip

1

2 сезон

iTunes

1 сезон

1 сезон

RePack

30

Ultimate

ВАЖНО

ИГРА 18+

pack

RePack

MK11
pack

Легкие деньги

RePack

jed

RePack

fifa19

RePack

RDR2

RePack

NEED FOR SPEED™ PAYBACK

4 сезон

9 сезон

Бесстыжие 9 сезон

Все сериалы

все сериалы на PB.wtf

RePack

FAR CRY 5

Anonymous, добрый вечер, мы не успеваем собрать деньги на оплату серверов за февраль, помогите нам пожалуйста в это трудное время. В качестве благодарности мы отключим Вам всю рекламу на сайте (укажите свой ник в строку Ваше имя)!

×
  
Magnet ссылка

Человек в высоком замке / The Man in the High Castle / Сезон: 1 / Серии: 1-10 (10) (Дэвид Семел) [2015, фантастика, триллер, драма, WEBRip] [Ukr MVO] piratbit.org

Человек в высоком замке через торрент piratbit.org

Размер: 7.97 GB | Добавлен: 4 года 1 мес. назад | Торрент скачан:39 раз
Скачать  

29-01-2017 14:45 Человек в высоком замке Скачать торрент  

Человек в высоком замке / Людина у високому замку / The Man in the High Castle
Год выпуска: 2015
Страна: США
Жанр: фантастика, триллер, драма
Продолжительность: 1x ~ 00:59:00
Перевод: Украинский (профессиональный, многоголосый)
Cубтитры: нет

Режиссер: Дэвид Семел / David Semel

В ролях: Алекса Давалос, Руперт Эванс, Люк Клеинтенк, DJ Куаллс, Джоэль де ла Фуэнте, Кэри-Хироюки Тагава, Руфус Сьюэлл, Майкл Рисполи, Джеффри Блейк, Бернхард Форхер

Описание:
Экранизация одноименной книги Филипа К. Дика про альтернативное будущее, пятнадцать лет спустя после победы гитлеровской коалиции во Второй мировой войне и капитуляции США перед Германией и Японией... Германия и Япония выиграли Вторую мировую. Америка разделена пополам между победителями, но спустя много лет после поражения (действие разворачивается в 1962-м) сознательные американцы организуют глубоко засекреченное подполье. Занимаются повстанцы в основном распространением странной кинохроники, на которой показана победа в войне союзнических войск. Именно с этими пленками в руках в нейтральную зону между двумя Америками отправляются Джо и Джулс — юноша и девушка, пробующие свои силы в борьбе с режимом.



Качество: WEBRip
Формат: AVI
Видео кодек: XvID
Аудио кодек: MP3
Видео: 720x400 (1.80:1), 23.976 fps, XviD MPEG-4 ~1390 kbps avg, 0.20 bit/pixel
Аудио: 44.100 kHz, MPEG Layer 3, 2 ch, ~320 kbps avg [Ukr MVO]
Аудио: 48 kHz, MPEG Layer 3, 2 ch, ~128.00 kbps avg [Eng]

Релиз --
General
Complete name : E:\Людина у високому замку (1 сезон) 400p НеЗупиняйПродакшн\The.Man.In.The.High.Castle.S01E01.DontStopProd.WEBRip.avi
Format : AVI
Format/Info : Audio Video Interleave
File size : 797 MiB
Duration : 1h 0mn
Overall bit rate : 1 856 Kbps
Writing application : VirtualDubMod 1.5.10.2 (build 2542/release)
Writing library : VirtualDubMod build 2542/release

Video
ID : 0
Format : MPEG-4 Visual
Format profile : Advanced Simple@L5
Format settings, BVOP : No
Format settings, QPel : No
Format settings, GMC : No warppoints
Format settings, Matrix : Default (H.263)
Codec ID : XVID
Codec ID/Hint : XviD
Duration : 1h 0mn
Bit rate : 1 323 Kbps
Width : 720 pixels
Height : 400 pixels
Display aspect ratio : 16:9
Frame rate : 23.976 fps
Color space : YUV
Chroma subsampling : 4:2:0
Bit depth : 8 bits
Scan type : Progressive
Compression mode : Lossy
Bits/(Pixel*Frame) : 0.192
Stream size : 569 MiB (71%)
Writing library : XviD 73

Audio #1
ID : 1
Format : MPEG Audio
Format version : Version 1
Format profile : Layer 3
Mode : Joint stereo
Codec ID : 55
Codec ID/Hint : MP3
Duration : 59mn 57s
Bit rate mode : Constant
Bit rate : 320 Kbps
Channel(s) : 2 channels
Sampling rate : 44.1 KHz
Compression mode : Lossy
Stream size : 137 MiB (17%)
Alignment : Aligned on interleaves

Audio #2
ID : 2
Format : MPEG Audio
Format version : Version 1
Format profile : Layer 3
Mode : Joint stereo
Mode extension : MS Stereo
Codec ID : 55
Codec ID/Hint : MP3
Duration : 1h 0mn
Bit rate mode : Constant
Bit rate : 128 Kbps
Channel(s) : 2 channels
Sampling rate : 48.0 KHz
Compression mode : Lossy
Stream size : 55.0 MiB (7%)
Alignment : Aligned on interleaves
Writing library : LAME3.90.3

piratbit.org



Скачать Человек в высоком замке через торрент http://i90.fastpic.ru/big/2017/0129/a2/6ab1859151f1d41e3d4372a2076057a2.jpg Скачать фильм Человек в высоком замке через торрент бесплантно в хорошем качестве Описание:Экранизация одноименной книги Филипа К. Дика про альтернативное будущее, пятнадцать лет спустя после победы гитлеровской коалиции ... 6.4 10 5
Торрент: Зарегистрирован [2017-01-29 14:45] · скачан: 39 раз
Статус: √ проверено
Размер: 7.97 GB
Как cкачать? Как скачать Человек в высоком замке через торрент | UTorrent

% Раздел Тема Автор DL S | L
Зарубежные сериалы [ 6.95 GB ] Человек в высоком замке / The Man in the High Castle / Сезон: 4 / Серии: 1-10 из 10 [2019 WEB-DLRip] [MVO] killermax2013 Скачать
1 | 0
Фильмы с украинским озвучиванием [ 59.42 GB ] Человек в высоком замке / The Man in the High Castle / Сезон: 4 / Серии: 1-10 из 10 [2019 WEBRip 1080p] [Ukr MVO] killermax2013 Скачать
1 | 0
Зарубежные сериалы [ 34.63 GB ] Человек в высоком замке / The Man in the High Castle / Сезон: 4 / Серии: 1-10 из 10 [2019 WEB-DL 1080p] MVO [Jaskier] bober100 Скачать
1 | 0
Зарубежные сериалы [ 16.97 GB ] Человек в высоком замке / The Man in the High Castle / Сезон: 4 / Серии: 1-10 из 10 [2019 WEB-DL 720p] MVO [Jaskier] bober100 Скачать
1 | 0
Зарубежные сериалы [ 5.98 GB ] Человек в высоком замке / The Man in the High Castle / Сезон: 4 / Серии: 1-10 из 10 [2019 WEB-DLRip] MVO [Jaskier] bober100 Скачать
1 | 0
Зарубежные сериалы [ 7.08 GB ] Человек в высоком замке / The Man in the High Castle / Сезон: 4 / Серии: 1-10 из 10 [2019 WEBRip] [MVO] killermax2013 Скачать
1 | 0
Зарубежные сериалы [ 16.98 GB ] Человек в высоком замке / The Man in the High Castle / Сезон: 4 / Серии: 1-10 из 10 [2019 WEBRip 720p] [MVO] killermax2013 Скачать
1 | 0

28-11-2019 20:33  

Отключить всю рекламу на сайте

    Дорогой пользователь! Огромная просьба, поблагодарите релизера, оцените раздачу и оставьте свои комментарий, если Вы скачали Человек в высоком замке через торрент бесплатно! Внесите свою лепту в развитие PiratBit!
    Комментировать посты могут только пользователи прошедшие не сложную регистрацию
    Показать сообщения:    

    Человек в высоком замке через торрент
    Скачать бесплатно Человек в высоком замке
    Человек в высоком замке скачать торрент
    Человек в высоком замке смотреть онлайн
    Cкачать фильм Человек в высоком замке бесплатно
    Человек в высоком замке скачать торрент в хорошем качестве
    Человек в высоком замке смотреть онлайн бесплатно в хорошем качестве


    Вы не можете начинать темы
    Вы не можете отвечать на сообщения
    Вы не можете редактировать свои сообщения
    Вы не можете удалять свои сообщения
    Вы не можете голосовать в опросах
    Вы не можете прикреплять файлы к сообщениям
    Вы можете скачивать файлы