1 сезон

3 сезон

iTunes

1

iTunes

DUB Netflix

iTunes

13

1 сезон

RePack

30

Deluxe

pack

Легкие деньги

ВАЖНО

ИГРА 18+

pack

RePack

MK11

RePack

jed

RePack

fifa19

RePack

RDR2

RePack

NEED FOR SPEED™ PAYBACK

4 сезон

9 сезон

Бесстыжие 9 сезон

Все сериалы

все сериалы на PB.wtf

RePack

FAR CRY 5

Anonymous, добрый день, мы не успеваем до 1 числа собрать деньги на оплату серверов, помогите нам пожалуйста в это трудное время. В качестве благодарности мы отключим Вам всю рекламу на сайте (укажите свой ник в строку Ваше имя)!

×
  
Magnet ссылка

Девятая жизнь Луи Дракса / The 9th Life of Louis Drax (Александр Ажа) [2016 г., триллер, детектив, HDRip, Дубляж "iTunes"] piratbit.org

Девятая жизнь Луи Дракса через торрент piratbit.org

Размер: 2.18 GB | Добавлен: 4 года 4 мес. назад | Торрент скачан:160 раз
Скачать  

30-01-2017 18:28 Девятая жизнь Луи Дракса Скачать торрент  

Девятая жизнь Луи Дракса / The 9th Life of Louis Drax
Год выпуска: 2016
Страна: Великобритания, Канада, США / Brightlight Pictures, Blank Tape, Fire Axe Pictures
Жанр: триллер, детектив
Продолжительность: 01:48:12
Перевод: Дубляж (iTunes)

Режиссер: Александр Ажа

rating

В ролях: Джейми Дорнан, Эйден Лонгуорт, Сара Гадон, Майкл Адамуэйт, Аарон Пол, Бэкхам Скойе, Адам Абрамс, Молли Паркер, Терри Чен, Рэнди Линн

Описание: Знаменитый психолог Аллан Паскаль пытается раскрыть тайны, которые хранит сознание 9-летнего Луи Дракса, впавшего в кому после таинственного несчастного случая. Влюбленный в мать мальчика доктор подозревает в случившемся отца. Но чем глубже он погружается в подсознание ребенка, тем сильнее размываются границы между мистикой и реальностью…

Качество: HDRip
Формат: AVI
Видео кодек: XviD
Аудио кодек: AC3
Видео: 720x304 (2.37:1), 23.976 fps, XviD build 50 ~2489 kbps avg, 0.47 bit/pixel
Аудио: 48 kHz, AC3 Dolby Digital, 3/2 (L,C,R,l,r) + LFE ch, ~384 kbps
скриншот   скриншот   скриншот   скриншот   скриншот   скриншот   скриншот   скриншот   скриншот   скриншот  

Общее
Полное имя : F:\ФИЛЬМЫ\Девятая жизнь Луи Дракса.2O16.D.HDRip.avi
Формат : AVI
Формат/Информация : Audio Video Interleave
Профиль формата : OpenDML
Размер файла : 2,18 Гбайт
Продолжительность : 1 ч. 48 м.
Общий поток : 2880 Кбит/сек
Программа кодирования : VirtualDubMod 1.5.10.3 | www.virtualdub-fr.org || (build 2550/release)
Библиотека кодирования : VirtualDubMod build 2550/release

Видео
Идентификатор : 0
Формат : MPEG-4 Visual
Профиль формата : Advanced Simple@L5
Параметр BVOP формата : 1
Параметр QPel формата : Нет
Параметр GMC формата : Без точки перехода
Параметр матрицы формата : Default (MPEG)
Идентификатор кодека : XVID
Идентификатор кодека/Подсказка : XviD
Продолжительность : 1 ч. 48 м.
Битрейт : 2484 Кбит/сек
Ширина : 720 пикселей
Высота : 304 пикселя
Соотношение сторон : 2,35:1
Частота кадров : 23,976 (24000/1001) кадра/сек
Цветовое пространство : YUV
Субдискретизация насыщенности : 4:2:0
Битовая глубина : 8 бит
Тип развёртки : Прогрессивная
Метод сжатия : С потерями
Бит/(Пиксели*Кадры) : 0.473
Размер потока : 1,88 Гбайт (86%)
Библиотека кодирования : XviD 1.2.1 (UTC 2008-12-04)

Аудио
Идентификатор : 1
Формат : AC-3
Формат/Информация : Audio Coding 3
Расширение режима : CM (complete main)
Параметр Endianness формата : Big
Идентификатор кодека : 2000
Продолжительность : 1 ч. 48 м.
Вид битрейта : Постоянный
Битрейт : 384 Кбит/сек
Каналы : 6 каналов
Расположение каналов : Front: L C R, Side: L R, LFE
Частота : 48,0 КГц
Частота кадров : 31,250 кадров/сек (1536 spf)
Битовая глубина : 16 бит
Метод сжатия : С потерями
Размер потока : 297 Мбайт (13%)
Выравнивание : Разделение по промежуткам
Продолжительность промежутка : 42 мс. (1,00 видеокадр)
Время предзагрузки промежутка : 500 мс.

piratbit.org



Скачать Девятая жизнь Луи Дракса через торрент https://pic1.kartinco.top/images/11/pisdu.jpg Скачать фильм Девятая жизнь Луи Дракса через торрент бесплантно в хорошем качестве Описание: Знаменитый психолог Аллан Паскаль пытается раскрыть тайны, которые хранит сознание 9-летнего Луи Дракса, впавшего в кому после ... 8.2 10 5
Торрент: Зарегистрирован [2017-01-30 18:28] · скачан: 160 раз
Статус: √ проверено
Размер: 2.18 GB
Как cкачать? Как скачать Девятая жизнь Луи Дракса через торрент | UTorrent

% Раздел Тема Автор DL S | L
Фильмы 2016 [DVDrip, WEB-DLRip, HDrip] (DUB, MVO) [ 1.41 GB ] Девятая жизнь Луи Дракса / The 9th Life of Louis Drax [2016 BDRip] - Twi7ter Скачать
2 | 0
R.G. Resident & PiratVoice - Фильмы, Видео [ 2.54 GB ] Девятая жизнь Луи Дракса / The 9th Life of Louis Drax [2016 BDRip-AVC] - R.G.Resident schultz Скачать
1 | 0
Фильмы (Blu-ray, BD-Remux, HDDVD) [ 20.66 GB ] Девятая жизнь Луи Дракса / The 9th Life of Louis Drax [2016 BDRemux 1080p] Russian Mafia Скачать
1 | 0
Фильмы 2016 [DVDrip, WEB-DLRip, HDrip] (DUB, MVO) [ 1.46 GB ] Девятая жизнь Луи Дракса / The 9th Life of Louis Drax [2016 WEB-DLRip] killermax2013 Скачать
2 | 0
Фильмы (WEB-DL 720p, 1080p) [ 3.56 GB ] Девятая жизнь Луи Дракса / The 9th Life of Louis Drax [2016 WEB-DL 1080p] - Ворон Скачать
1 | 0


Последний раз редактировалось: coc900 (2017-01-31 17:58), всего редактировалось 1 раз

28-11-2019 20:33  

Отключить всю рекламу на сайте


31-01-2017 07:54 Девятая жизнь Луи Дракса Скачать торрент  

coc900, макс. размер постера 700pxpiratbit.org



31-01-2017 17:59 Девятая жизнь Луи Дракса Скачать торрент  

schultz, постер исправилpiratbit.org



    Дорогой пользователь! Огромная просьба, поблагодарите релизера, оцените раздачу и оставьте свои комментарий, если Вы скачали Девятая жизнь Луи Дракса через торрент бесплатно! Внесите свою лепту в развитие PiratBit!
    Комментировать посты могут только пользователи прошедшие не сложную регистрацию
    Показать сообщения:    

    Девятая жизнь Луи Дракса через торрент
    Скачать бесплатно Девятая жизнь Луи Дракса
    Девятая жизнь Луи Дракса скачать торрент
    Девятая жизнь Луи Дракса смотреть онлайн
    Cкачать фильм Девятая жизнь Луи Дракса бесплатно
    Девятая жизнь Луи Дракса скачать торрент в хорошем качестве
    Девятая жизнь Луи Дракса смотреть онлайн бесплатно в хорошем качестве


    Вы не можете начинать темы
    Вы не можете отвечать на сообщения
    Вы не можете редактировать свои сообщения
    Вы не можете удалять свои сообщения
    Вы не можете голосовать в опросах
    Вы не можете прикреплять файлы к сообщениям
    Вы можете скачивать файлы