Лицензия

MVO

1

1 сезон

Лицензия

Лицензия

13

MVO

1 сезон

Deluxe Edition

pack

Рекомендуем

30

Repack

ВАЖНО

ВАЖНО

Ghostwire

RePack

jed

RePack

fifa19

RePack

RDR2

RePack

NEED FOR SPEED™ PAYBACK

RePack

Кинопоиск HD

 Острые козырьки 6 сезон

6 сезон

FAR CRY 6

RePack

Лицензия

MVO

1

1 сезон

1 сезон

Лицензия

  

Игра Престолов / Game Of Thrones / Сезоны: 1-6 / Серии: 1-60 из 60 / (Брайан Кирк, Даниэль Минахан, Алан Тейлор) [2011-2016, фэнтези, драма, приключения, BDRip-AVC] (MVO - LostFilm / DUB - Amedia)

Игра Престолов через торрент piratbit.org

Раздают: 1 [ 0 KB/s ]
Размер: 69.87 GB | Добавлен: 5 лет 7 мес. назад | Торрент скачан:1985 раз
Смотреть онлайн Игра Престолов | Скачать   

31-01-2017 14:55 Игра Престолов Скачать торрент  


Игра престолов |Game of Thrones
«Победа или смерть»



Игра престолов |Game of Thrones
«Победа или смерть»

Информация:
  • Год выпуска: 2011
  • Страна: США
  • Жанр: Фэнтези, драма, приключения, экранизация
  • Продолжительность серии: ~ 00:50:00
  • Перевод:
    Профессиональный (многоголосый закадровый) LostFilm
    Профессиональный (дублированный) - Amedia (Kravec)


Режиссер: Дэвид Наттер

В ролях:
Питер Динклэйдж / Peter Dinklage (Tyrion Lannister), Лина Хиди / Lena Headey (Cersei Lannister), Эмилия Кларк / Emilia Clarke (Daenerys Targaryen), Кит Харингтон / Kit Harington (Jon Snow), Николай Костер-Вальдау / Nikolaj Coster-Waldau (Jaime Lannister), Мэйси Уильямс / Maisie Williams (Arya Stark), Софи Тернер / Sophie Turner (Sansa Stark), Айзек Хемпстед-Райт / Isaac Hempstead Wright (Bran Stark)


Описание:
Гражданская война в Семи королевствах подходит к концу. Один король сражен тенью собственного брата, другой убит на свадьбе, третий царит на море, но на суше он никто. Четвертый по воле Владыки Света отправился к границе, разделяющей мир живых и мертвецов. Пятый же — на Железном троне и готовится к свадьбе и союзу, который навсегда покончит с притязаниями на престол со стороны… Если только не окажутся правдой слухи о последней из рода Таргариенов, ее драконах, воинах-безупречных и их победах в каких-то далеких землях. Но зима уже на пороге, урожай погиб, а Иные пробудились: одичалые бегут от них к Стене, дозорные — за Стену, и только калека со своими спутниками направляются в самое сердце Севера.

Тех.данные:
Качество: BDRip-AVC
Формат: MKV
Видео кодек: AVC (x264)
Аудио кодек: AC3
Видео: 1024x576 / 16:9 / 2002 kbps / 23.976 fps / 0.142 bit/pixel
Аудио:Rus 48,0 КГц, AC3 Dolby Digital, 5.1 ch, 448 Кбит/с/ |LostFilm|
Аудио:Rus 48,0 КГц, AC3 Dolby Digital, 2.0 ch, 192 Кбит/с/ |Amedia|
Аудио:Eng 48,0 КГц, AC3 Dolby Digital, 5.1 ch, 384 Кбит/с/ |Оригинал|
Субтитры:Русские (форсированные, полные), английские (полные)

Полное имя : C:\GOT\Season 01\GOT.[S01E01].2xRu.En.[qqss44].mkv
Формат : Matroska
Версия формата : Version 2
Размер файла : 1,30 Гбайт
Продолжительность : 1 ч. 1 м.
Общий поток : 3029 Кбит/сек
Дата кодирования : UTC 2015-12-10 12:53:29
Программа кодирования : mkvmerge v7.9.0 ('Birds') 64bit
Библиотека кодирования : libebml v1.3.1 + libmatroska v1.4.2

Видео
Идентификатор : 1
Формат : AVC
Формат/Информация : Advanced Video Codec
Профиль формата : High@L4.1
Параметр CABAC формата : Да
Параметр ReFrames формата : 4 кадра
Идентификатор кодека : V_MPEG4/ISO/AVC
Продолжительность : 1 ч. 1 м.
Битрейт : 2002 Кбит/сек
Ширина : 1024 пикселя
Высота : 576 пикселей
Соотношение сторон : 16:9
Режим частоты кадров : Постоянный
Частота кадров : 23,976 кадра/сек
Цветовое пространство : YUV
Субдискретизация насыщенности : 4:2:0
Битовая глубина : 8 бит
Тип развёртки : Прогрессивная
Бит/(Пиксели*Кадры) : 0.142
Размер потока : 883 Мбайт (66%)
Библиотека кодирования : x264 core 130 r2273 b3065e6
Настройки программы : cabac=1 / ref=4 / deblock=1:-1:-1 / analyse=0x3:0x133 / me=umh / subme=11 / psy=1 / psy_rd=1.00:0.20 / mixed_ref=1 / me_range=24 / chroma_me=1 / trellis=2 / 8x8dct=1 / cqm=0 / deadzone=21,11 / fast_pskip=0 / chroma_qp_offset=-3 / threads=12 / lookahead_threads=1 / sliced_threads=0 / nr=0 / decimate=0 / interlaced=0 / bluray_compat=0 / constrained_intra=0 / bframes=4 / b_pyramid=2 / b_adapt=2 / b_bias=0 / direct=3 / weightb=1 / open_gop=0 / weightp=2 / keyint=240 / keyint_min=23 / scenecut=40 / intra_refresh=0 / rc=2pass / mbtree=0 / bitrate=2002 / ratetol=1.0 / qcomp=0.60 / qpmin=0 / qpmax=69 / qpstep=4 / cplxblur=20.0 / qblur=0.5 / ip_ratio=1.40 / pb_ratio=1.30 / aq=1:1.00
Язык : English
Default : Да
Forced : Нет

Аудио #1
Идентификатор : 2
Формат : AC-3
Формат/Информация : Audio Coding 3
Расширение режима : CM (complete main)
Параметр Endianness формата : Big
Идентификатор кодека : A_AC3
Продолжительность : 1 ч. 1 м.
Вид битрейта : Постоянный
Битрейт : 448 Кбит/сек
Каналы : 6 каналов
Расположение каналов : Front: L C R, Side: L R, LFE
Частота : 48,0 КГц
Частота кадров : 31,250 кадров/сек (1536 spf)
Битовая глубина : 16 бит
Метод сжатия : С потерями
Размер потока : 197 Мбайт (15%)
Заголовок : LostFilm
Язык : Russian
Default : Да
Forced : Нет

Аудио #2
Идентификатор : 3
Формат : AC-3
Формат/Информация : Audio Coding 3
Расширение режима : CM (complete main)
Параметр Endianness формата : Big
Идентификатор кодека : A_AC3
Продолжительность : 1 ч. 1 м.
Вид битрейта : Постоянный
Битрейт : 192 Кбит/сек
Каналы : 2 канала
Расположение каналов : Front: L R
Частота : 48,0 КГц
Частота кадров : 31,250 кадров/сек (1536 spf)
Битовая глубина : 16 бит
Метод сжатия : С потерями
Размер потока : 84,6 Мбайт (6%)
Заголовок : РенТВ
Язык : Russian
Default : Нет
Forced : Нет

Аудио #3
Идентификатор : 4
Формат : AC-3
Формат/Информация : Audio Coding 3
Расширение режима : CM (complete main)
Параметр Endianness формата : Big
Идентификатор кодека : A_AC3
Продолжительность : 1 ч. 1 м.
Вид битрейта : Постоянный
Битрейт : 384 Кбит/сек
Каналы : 6 каналов
Расположение каналов : Front: L C R, Side: L R, LFE
Частота : 48,0 КГц
Частота кадров : 31,250 кадров/сек (1536 spf)
Битовая глубина : 16 бит
Метод сжатия : С потерями
Размер потока : 169 Мбайт (13%)
Заголовок : Original
Язык : English
Default : Нет
Forced : Нет

Текст #1
Идентификатор : 5
Формат : ASS
Идентификатор кодека : S_TEXT/ASS
Идентификатор кодека/Информация : Advanced Sub Station Alpha
Продолжительность : 51 м. 35 с.
Битрейт : 2 бит/сек
Count of elements : 12
Метод сжатия : Без потерь
Размер потока : 946 байт (0%)
Заголовок : FORCED
Язык : Russian
Default : Да
Forced : Нет

Текст #2
Идентификатор : 6
Формат : UTF-8
Идентификатор кодека : S_TEXT/UTF8
Идентификатор кодека/Информация : UTF-8 Plain Text
Продолжительность : 59 м. 32 с.
Битрейт : 66 бит/сек
Count of elements : 548
Размер потока : 29,1 Кбайт (0%)
Заголовок : 7kingdoms
Язык : Russian
Default : Нет
Forced : Нет

Текст #3
Идентификатор : 7
Формат : UTF-8
Идентификатор кодека : S_TEXT/UTF8
Идентификатор кодека/Информация : UTF-8 Plain Text
Продолжительность : 58 м. 29 с.
Битрейт : 40 бит/сек
Count of elements : 555
Размер потока : 17,2 Кбайт (0%)
Заголовок : Original
Язык : English
Default : Нет
Forced : Нет



Игра престолов |Game of Thrones
«Победа или смерть»

Информация:
  • Год выпуска: 2012
  • Страна: США
  • Жанр: Фэнтези, драма, приключения, экранизация
  • Продолжительность серии: ~ 00:50:00
  • Перевод:
    Профессиональный (многоголосый закадровый) LostFilm
    Профессиональный (дублированный) - Amedia (Kravec)


Режиссер: Дэвид Наттер

В ролях:
Питер Динклэйдж / Peter Dinklage (Tyrion Lannister), Лина Хиди / Lena Headey (Cersei Lannister), Эмилия Кларк / Emilia Clarke (Daenerys Targaryen), Кит Харингтон / Kit Harington (Jon Snow), Николай Костер-Вальдау / Nikolaj Coster-Waldau (Jaime Lannister), Мэйси Уильямс / Maisie Williams (Arya Stark), Софи Тернер / Sophie Turner (Sansa Stark), Айзек Хемпстед-Райт / Isaac Hempstead Wright (Bran Stark)


Описание:
Гражданская война в Семи королевствах подходит к концу. Один король сражен тенью собственного брата, другой убит на свадьбе, третий царит на море, но на суше он никто. Четвертый по воле Владыки Света отправился к границе, разделяющей мир живых и мертвецов. Пятый же — на Железном троне и готовится к свадьбе и союзу, который навсегда покончит с притязаниями на престол со стороны… Если только не окажутся правдой слухи о последней из рода Таргариенов, ее драконах, воинах-безупречных и их победах в каких-то далеких землях. Но зима уже на пороге, урожай погиб, а Иные пробудились: одичалые бегут от них к Стене, дозорные — за Стену, и только калека со своими спутниками направляются в самое сердце Севера.

Тех.данные:
Качество: BDRip-AVC
Формат: MKV
Видео кодек: AVC (x264)
Аудио кодек: AC3
Видео: 1024x576 / 16:9 / 2002 kbps / 23.976 fps / 0.142 bit/pixel
Аудио:Rus 48,0 КГц, AC3 Dolby Digital, 5.1 ch, 384 Кбит/с/ |LostFilm|
Аудио:Rus 48,0 КГц, AC3 Dolby Digital, 2.0 ch, 192 Кбит/с/ |Amedia|
Аудио:Eng 48,0 КГц, AC3 Dolby Digital, 5.1 ch, 384 Кбит/с/ |Оригинал|
Субтитры:Русские (форсированные, полные), английские (полные)

Полное имя : C:\GOT\Season 02\GOT.[S02E01].2xRu.En.[qqss44].mkv
Формат : Matroska
Версия формата : Version 2
Размер файла : 1,09 Гбайт
Продолжительность : 52 м. 41 с.
Общий поток : 2966 Кбит/сек
Дата кодирования : UTC 2015-12-10 22:28:50
Программа кодирования : mkvmerge v7.9.0 ('Birds') 64bit
Библиотека кодирования : libebml v1.3.1 + libmatroska v1.4.2

Видео
Идентификатор : 1
Формат : AVC
Формат/Информация : Advanced Video Codec
Профиль формата : High@L4.1
Параметр CABAC формата : Да
Параметр ReFrames формата : 5 кадров
Идентификатор кодека : V_MPEG4/ISO/AVC
Продолжительность : 52 м. 41 с.
Битрейт : 2002 Кбит/сек
Ширина : 1024 пикселя
Высота : 576 пикселей
Соотношение сторон : 16:9
Режим частоты кадров : Постоянный
Частота кадров : 23,976 кадра/сек
Цветовое пространство : YUV
Субдискретизация насыщенности : 4:2:0
Битовая глубина : 8 бит
Тип развёртки : Прогрессивная
Бит/(Пиксели*Кадры) : 0.142
Размер потока : 755 Мбайт (68%)
Библиотека кодирования : x264 core 130 r2273 b3065e6
Настройки программы : cabac=1 / ref=5 / deblock=1:-1:-1 / analyse=0x3:0x133 / me=umh / subme=11 / psy=1 / psy_rd=1.00:0.20 / mixed_ref=1 / me_range=24 / chroma_me=1 / trellis=2 / 8x8dct=1 / cqm=0 / deadzone=21,11 / fast_pskip=0 / chroma_qp_offset=-3 / threads=12 / lookahead_threads=1 / sliced_threads=0 / nr=0 / decimate=0 / interlaced=0 / bluray_compat=0 / constrained_intra=0 / bframes=4 / b_pyramid=2 / b_adapt=2 / b_bias=0 / direct=3 / weightb=1 / open_gop=0 / weightp=2 / keyint=240 / keyint_min=23 / scenecut=40 / intra_refresh=0 / rc=2pass / mbtree=0 / bitrate=2002 / ratetol=1.0 / qcomp=0.60 / qpmin=0 / qpmax=69 / qpstep=4 / cplxblur=20.0 / qblur=0.5 / ip_ratio=1.40 / pb_ratio=1.30 / aq=1:1.00
Язык : English
Default : Да
Forced : Нет

Аудио #1
Идентификатор : 2
Формат : AC-3
Формат/Информация : Audio Coding 3
Расширение режима : CM (complete main)
Параметр Endianness формата : Big
Идентификатор кодека : A_AC3
Продолжительность : 52 м. 40 с.
Вид битрейта : Постоянный
Битрейт : 384 Кбит/сек
Каналы : 6 каналов
Расположение каналов : Front: L C R, Side: L R, LFE
Частота : 48,0 КГц
Частота кадров : 31,250 кадров/сек (1536 spf)
Битовая глубина : 16 бит
Метод сжатия : С потерями
Размер потока : 145 Мбайт (13%)
Заголовок : LostFilm
Язык : Russian
Default : Да
Forced : Нет

Аудио #2
Идентификатор : 3
Формат : AC-3
Формат/Информация : Audio Coding 3
Расширение режима : CM (complete main)
Параметр Endianness формата : Big
Идентификатор кодека : A_AC3
Продолжительность : 52 м. 41 с.
Вид битрейта : Постоянный
Битрейт : 192 Кбит/сек
Каналы : 2 канала
Расположение каналов : Front: L R
Частота : 48,0 КГц
Частота кадров : 31,250 кадров/сек (1536 spf)
Битовая глубина : 16 бит
Метод сжатия : С потерями
Размер потока : 72,4 Мбайт (6%)
Заголовок : РенТВ
Язык : Russian
Default : Нет
Forced : Нет

Аудио #3
Идентификатор : 4
Формат : AC-3
Формат/Информация : Audio Coding 3
Расширение режима : CM (complete main)
Параметр Endianness формата : Big
Идентификатор кодека : A_AC3
Продолжительность : 52 м. 41 с.
Вид битрейта : Постоянный
Битрейт : 384 Кбит/сек
Каналы : 6 каналов
Расположение каналов : Front: L C R, Side: L R, LFE
Частота : 48,0 КГц
Частота кадров : 31,250 кадров/сек (1536 spf)
Битовая глубина : 16 бит
Метод сжатия : С потерями
Размер потока : 145 Мбайт (13%)
Заголовок : Original
Язык : English
Default : Нет
Forced : Нет

Текст #1
Идентификатор : 5
Формат : ASS
Идентификатор кодека : S_TEXT/ASS
Идентификатор кодека/Информация : Advanced Sub Station Alpha
Продолжительность : 44 с. 210 мс.
Битрейт : 171 бит/сек
Count of elements : 10
Метод сжатия : Без потерь
Размер потока : 945 байт (0%)
Заголовок : FORCED
Язык : Russian
Default : Нет
Forced : Нет

Текст #2
Идентификатор : 6
Формат : UTF-8
Идентификатор кодека : S_TEXT/UTF8
Идентификатор кодека/Информация : UTF-8 Plain Text
Продолжительность : 50 м. 38 с.
Битрейт : 113 бит/сек
Count of elements : 749
Размер потока : 42,0 Кбайт (0%)
Заголовок : 7kingdoms
Язык : Russian
Default : Нет
Forced : Нет

Текст #3
Идентификатор : 7
Формат : UTF-8
Идентификатор кодека : S_TEXT/UTF8
Идентификатор кодека/Информация : UTF-8 Plain Text
Продолжительность : 51 м. 17 с.
Битрейт : 73 бит/сек
Count of elements : 806
Размер потока : 27,7 Кбайт (0%)
Заголовок : Original
Язык : English
Default : Нет
Forced : Нет



Игра престолов |Game of Thrones
«Победа или смерть»

Информация:
  • Год выпуска: 2013
  • Страна: США
  • Жанр: Фэнтези, драма, приключения, экранизация
  • Продолжительность серии: ~ 00:50:00
  • Перевод:
    Профессиональный (многоголосый закадровый) LostFilm
    Профессиональный (дублированный) - Amedia (Kravec)


Режиссер: Дэвид Наттер

В ролях:
Питер Динклэйдж / Peter Dinklage (Tyrion Lannister), Лина Хиди / Lena Headey (Cersei Lannister), Эмилия Кларк / Emilia Clarke (Daenerys Targaryen), Кит Харингтон / Kit Harington (Jon Snow), Николай Костер-Вальдау / Nikolaj Coster-Waldau (Jaime Lannister), Мэйси Уильямс / Maisie Williams (Arya Stark), Софи Тернер / Sophie Turner (Sansa Stark), Айзек Хемпстед-Райт / Isaac Hempstead Wright (Bran Stark)


Описание:
Гражданская война в Семи королевствах подходит к концу. Один король сражен тенью собственного брата, другой убит на свадьбе, третий царит на море, но на суше он никто. Четвертый по воле Владыки Света отправился к границе, разделяющей мир живых и мертвецов. Пятый же — на Железном троне и готовится к свадьбе и союзу, который навсегда покончит с притязаниями на престол со стороны… Если только не окажутся правдой слухи о последней из рода Таргариенов, ее драконах, воинах-безупречных и их победах в каких-то далеких землях. Но зима уже на пороге, урожай погиб, а Иные пробудились: одичалые бегут от них к Стене, дозорные — за Стену, и только калека со своими спутниками направляются в самое сердце Севера.

Тех.данные:
Качество: BDRip-AVC
Формат: MKV
Видео кодек: AVC (x264)
Аудио кодек: AC3
Видео: 1024x576 / 16:9 / 2002 kbps / 23.976 fps / 0.142 bit/pixel
Аудио:Rus 48,0 КГц, AC3 Dolby Digital, 5.1 ch, 384 Кбит/с/ |LostFilm|
Аудио:Rus 48,0 КГц, AC3 Dolby Digital, 2.0 ch, 192 Кбит/с/ |Amedia|
Аудио:Eng 48,0 КГц, AC3 Dolby Digital, 5.1 ch, 384 Кбит/с/ |Оригинал|
Субтитры:Русские (форсированные, полные), английские (полные)

Полное имя : C:\GOT\Season 03\GOT.[S03E01].2xRu.En.[qqss44].mkv
Формат : Matroska
Версия формата : Version 2
Размер файла : 1,13 Гбайт
Продолжительность : 54 м. 31 с.
Общий поток : 2966 Кбит/сек
Дата кодирования : UTC 2015-12-14 17:56:08
Программа кодирования : mkvmerge v7.9.0 ('Birds') 64bit
Библиотека кодирования : libebml v1.3.1 + libmatroska v1.4.2

Видео
Идентификатор : 1
Формат : AVC
Формат/Информация : Advanced Video Codec
Профиль формата : High@L4.1
Параметр CABAC формата : Да
Параметр ReFrames формата : 5 кадров
Идентификатор кодека : V_MPEG4/ISO/AVC
Продолжительность : 54 м. 31 с.
Битрейт : 2002 Кбит/сек
Ширина : 1024 пикселя
Высота : 576 пикселей
Соотношение сторон : 16:9
Режим частоты кадров : Постоянный
Частота кадров : 23,976 кадра/сек
Цветовое пространство : YUV
Субдискретизация насыщенности : 4:2:0
Битовая глубина : 8 бит
Тип развёртки : Прогрессивная
Бит/(Пиксели*Кадры) : 0.142
Размер потока : 781 Мбайт (68%)
Библиотека кодирования : x264 core 130 r2273 b3065e6
Настройки программы : cabac=1 / ref=5 / deblock=1:-1:-1 / analyse=0x3:0x133 / me=umh / subme=11 / psy=1 / psy_rd=1.00:0.20 / mixed_ref=1 / me_range=24 / chroma_me=1 / trellis=2 / 8x8dct=1 / cqm=0 / deadzone=21,11 / fast_pskip=0 / chroma_qp_offset=-3 / threads=12 / lookahead_threads=1 / sliced_threads=0 / nr=0 / decimate=0 / interlaced=0 / bluray_compat=0 / constrained_intra=0 / bframes=4 / b_pyramid=2 / b_adapt=2 / b_bias=0 / direct=3 / weightb=1 / open_gop=0 / weightp=2 / keyint=240 / keyint_min=23 / scenecut=40 / intra_refresh=0 / rc=2pass / mbtree=0 / bitrate=2002 / ratetol=1.0 / qcomp=0.60 / qpmin=0 / qpmax=69 / qpstep=4 / cplxblur=20.0 / qblur=0.5 / ip_ratio=1.40 / pb_ratio=1.30 / aq=1:1.00
Язык : English
Default : Да
Forced : Нет

Аудио #1
Идентификатор : 2
Формат : AC-3
Формат/Информация : Audio Coding 3
Расширение режима : CM (complete main)
Параметр Endianness формата : Big
Идентификатор кодека : A_AC3
Продолжительность : 54 м. 31 с.
Вид битрейта : Постоянный
Битрейт : 384 Кбит/сек
Каналы : 6 каналов
Расположение каналов : Front: L C R, Side: L R, LFE
Частота : 48,0 КГц
Частота кадров : 31,250 кадров/сек (1536 spf)
Битовая глубина : 16 бит
Метод сжатия : С потерями
Размер потока : 150 Мбайт (13%)
Заголовок : LostFilm
Язык : Russian
Default : Да
Forced : Нет

Аудио #2
Идентификатор : 3
Формат : AC-3
Формат/Информация : Audio Coding 3
Расширение режима : CM (complete main)
Параметр Endianness формата : Big
Идентификатор кодека : A_AC3
Продолжительность : 54 м. 31 с.
Вид битрейта : Постоянный
Битрейт : 192 Кбит/сек
Каналы : 2 канала
Расположение каналов : Front: L R
Частота : 48,0 КГц
Частота кадров : 31,250 кадров/сек (1536 spf)
Битовая глубина : 16 бит
Метод сжатия : С потерями
Размер потока : 74,9 Мбайт (6%)
Заголовок : РенТВ
Язык : Russian
Default : Нет
Forced : Нет

Аудио #3
Идентификатор : 4
Формат : AC-3
Формат/Информация : Audio Coding 3
Расширение режима : CM (complete main)
Параметр Endianness формата : Big
Идентификатор кодека : A_AC3
Продолжительность : 54 м. 31 с.
Вид битрейта : Постоянный
Битрейт : 384 Кбит/сек
Каналы : 6 каналов
Расположение каналов : Front: L C R, Side: L R, LFE
Частота : 48,0 КГц
Частота кадров : 31,250 кадров/сек (1536 spf)
Битовая глубина : 16 бит
Метод сжатия : С потерями
Размер потока : 150 Мбайт (13%)
Заголовок : Original
Язык : English
Default : Нет
Forced : Нет

Текст #1
Идентификатор : 5
Формат : ASS
Идентификатор кодека : S_TEXT/ASS
Идентификатор кодека/Информация : Advanced Sub Station Alpha
Продолжительность : 3 м. 10 с.
Битрейт : 105 бит/сек
Count of elements : 21
Метод сжатия : Без потерь
Размер потока : 2,45 Кбайт (0%)
Заголовок : FORCED
Язык : Russian
Default : Нет
Forced : Нет

Текст #2
Идентификатор : 6
Формат : UTF-8
Идентификатор кодека : S_TEXT/UTF8
Идентификатор кодека/Информация : UTF-8 Plain Text
Продолжительность : 52 м. 15 с.
Битрейт : 98 бит/сек
Count of elements : 683
Размер потока : 37,9 Кбайт (0%)
Заголовок : 7kingdoms
Язык : Russian
Default : Нет
Forced : Нет

Текст #3
Идентификатор : 7
Формат : UTF-8
Идентификатор кодека : S_TEXT/UTF8
Идентификатор кодека/Информация : UTF-8 Plain Text
Продолжительность : 52 м. 44 с.
Битрейт : 54 бит/сек
Count of elements : 637
Размер потока : 21,2 Кбайт (0%)
Заголовок : Original
Язык : English
Default : Нет
Forced : Нет



Игра престолов |Game of Thrones
«Победа или смерть»

Информация:
  • Год выпуска: 2014
  • Страна: США
  • Жанр: Фэнтези, драма, приключения, экранизация
  • Продолжительность серии: ~ 00:50:00
  • Перевод:
    Профессиональный (многоголосый закадровый) LostFilm
    Профессиональный (дублированный) - Amedia (Kravec)


Режиссер: Дэвид Наттер

В ролях:
Питер Динклэйдж / Peter Dinklage (Tyrion Lannister), Лина Хиди / Lena Headey (Cersei Lannister), Эмилия Кларк / Emilia Clarke (Daenerys Targaryen), Кит Харингтон / Kit Harington (Jon Snow), Николай Костер-Вальдау / Nikolaj Coster-Waldau (Jaime Lannister), Мэйси Уильямс / Maisie Williams (Arya Stark), Софи Тернер / Sophie Turner (Sansa Stark), Айзек Хемпстед-Райт / Isaac Hempstead Wright (Bran Stark)


Описание:
Гражданская война в Семи королевствах подходит к концу. Один король сражен тенью собственного брата, другой убит на свадьбе, третий царит на море, но на суше он никто. Четвертый по воле Владыки Света отправился к границе, разделяющей мир живых и мертвецов. Пятый же — на Железном троне и готовится к свадьбе и союзу, который навсегда покончит с притязаниями на престол со стороны… Если только не окажутся правдой слухи о последней из рода Таргариенов, ее драконах, воинах-безупречных и их победах в каких-то далеких землях. Но зима уже на пороге, урожай погиб, а Иные пробудились: одичалые бегут от них к Стене, дозорные — за Стену, и только калека со своими спутниками направляются в самое сердце Севера.

Тех.данные:
Качество: BDRip-AVC
Формат: MKV
Видео кодек: AVC (x264)
Аудио кодек: AC3
Видео: 1024x576 / 16:9 / 2002 kbps / 23.976 fps / 0.142 bit/pixel
Аудио:Rus 48,0 КГц, AC3 Dolby Digital, 5.1 ch, 384 Кбит/с/ |LostFilm|
Аудио:Rus 48,0 КГц, AC3 Dolby Digital, 2.0 ch, 192 Кбит/с/ |Amedia|
Аудио:Eng 48,0 КГц, AC3 Dolby Digital, 5.1 ch, 384 Кбит/с/ |Оригинал|
Субтитры:Русские (форсированные, полные), английские (полные)

Полное имя : C:\GOT\Season 04\GOT.[S04E01].2xRu.En.[qqss44].mkv
Формат : Matroska
Версия формата : Version 2
Размер файла : 1,21 Гбайт
Продолжительность : 58 м. 13 с.
Общий поток : 2966 Кбит/сек
Дата кодирования : UTC 2016-05-28 08:43:41
Программа кодирования : mkvmerge v7.9.0 ('Birds') 64bit
Библиотека кодирования : libebml v1.3.1 + libmatroska v1.4.2

Видео
Идентификатор : 1
Формат : AVC
Формат/Информация : Advanced Video Codec
Профиль формата : High@L4.1
Параметр CABAC формата : Да
Параметр ReFrames формата : 5 кадров
Идентификатор кодека : V_MPEG4/ISO/AVC
Продолжительность : 58 м. 13 с.
Битрейт : 2002 Кбит/сек
Ширина : 1024 пикселя
Высота : 576 пикселей
Соотношение сторон : 16:9
Режим частоты кадров : Постоянный
Частота кадров : 23,976 кадра/сек
Цветовое пространство : YUV
Субдискретизация насыщенности : 4:2:0
Битовая глубина : 8 бит
Тип развёртки : Прогрессивная
Бит/(Пиксели*Кадры) : 0.142
Размер потока : 834 Мбайт (68%)
Библиотека кодирования : x264 core 130 r2273 b3065e6
Настройки программы : cabac=1 / ref=5 / deblock=1:-1:-1 / analyse=0x3:0x133 / me=umh / subme=11 / psy=1 / psy_rd=1.00:0.20 / mixed_ref=1 / me_range=24 / chroma_me=1 / trellis=2 / 8x8dct=1 / cqm=0 / deadzone=21,11 / fast_pskip=0 / chroma_qp_offset=-3 / threads=12 / lookahead_threads=1 / sliced_threads=0 / nr=0 / decimate=0 / interlaced=0 / bluray_compat=0 / constrained_intra=0 / bframes=4 / b_pyramid=2 / b_adapt=2 / b_bias=0 / direct=3 / weightb=1 / open_gop=0 / weightp=2 / keyint=240 / keyint_min=23 / scenecut=40 / intra_refresh=0 / rc=2pass / mbtree=0 / bitrate=2002 / ratetol=1.0 / qcomp=0.60 / qpmin=0 / qpmax=69 / qpstep=4 / cplxblur=20.0 / qblur=0.5 / ip_ratio=1.40 / pb_ratio=1.30 / aq=1:1.00
Язык : English
Default : Да
Forced : Нет

Аудио #1
Идентификатор : 2
Формат : AC-3
Формат/Информация : Audio Coding 3
Расширение режима : CM (complete main)
Параметр Endianness формата : Big
Идентификатор кодека : A_AC3
Продолжительность : 58 м. 12 с.
Вид битрейта : Постоянный
Битрейт : 384 Кбит/сек
Каналы : 6 каналов
Расположение каналов : Front: L C R, Side: L R, LFE
Частота : 48,0 КГц
Частота кадров : 31,250 кадров/сек (1536 spf)
Битовая глубина : 16 бит
Метод сжатия : С потерями
Размер потока : 160 Мбайт (13%)
Заголовок : LostFilm
Язык : Russian
Default : Да
Forced : Нет

Аудио #2
Идентификатор : 3
Формат : AC-3
Формат/Информация : Audio Coding 3
Расширение режима : CM (complete main)
Параметр Endianness формата : Big
Идентификатор кодека : A_AC3
Продолжительность : 58 м. 13 с.
Вид битрейта : Постоянный
Битрейт : 192 Кбит/сек
Каналы : 2 канала
Расположение каналов : Front: L R
Частота : 48,0 КГц
Частота кадров : 31,250 кадров/сек (1536 spf)
Битовая глубина : 16 бит
Метод сжатия : С потерями
Размер потока : 80,0 Мбайт (6%)
Заголовок : Kravec-Amedia
Язык : Russian
Default : Нет
Forced : Нет

Аудио #3
Идентификатор : 4
Формат : AC-3
Формат/Информация : Audio Coding 3
Расширение режима : CM (complete main)
Параметр Endianness формата : Big
Идентификатор кодека : A_AC3
Продолжительность : 58 м. 13 с.
Вид битрейта : Постоянный
Битрейт : 384 Кбит/сек
Каналы : 6 каналов
Расположение каналов : Front: L C R, Side: L R, LFE
Частота : 48,0 КГц
Частота кадров : 31,250 кадров/сек (1536 spf)
Битовая глубина : 16 бит
Метод сжатия : С потерями
Размер потока : 160 Мбайт (13%)
Заголовок : Original
Язык : English
Default : Нет
Forced : Нет

Текст #1
Идентификатор : 5
Формат : ASS
Идентификатор кодека : S_TEXT/ASS
Идентификатор кодека/Информация : Advanced Sub Station Alpha
Продолжительность : 11 с. 810 мс.
Битрейт : 214 бит/сек
Count of elements : 5
Метод сжатия : Без потерь
Размер потока : 317 байт (0%)
Заголовок : FORCED
Язык : Russian
Default : Нет
Forced : Нет

Текст #2
Идентификатор : 6
Формат : UTF-8
Идентификатор кодека : S_TEXT/UTF8
Идентификатор кодека/Информация : UTF-8 Plain Text
Продолжительность : 54 м. 27 с.
Битрейт : 111 бит/сек
Count of elements : 825
Размер потока : 44,5 Кбайт (0%)
Заголовок : 7kingdoms
Язык : Russian
Default : Нет
Forced : Нет

Текст #3
Идентификатор : 7
Формат : UTF-8
Идентификатор кодека : S_TEXT/UTF8
Идентификатор кодека/Информация : UTF-8 Plain Text
Продолжительность : 52 м. 13 с.
Битрейт : 66 бит/сек
Count of elements : 756
Размер потока : 25,6 Кбайт (0%)
Заголовок : Original
Язык : English
Default : Нет
Forced : Нет



Игра престолов |Game of Thrones
«Победа или смерть»

Информация:
  • Год выпуска: 2015
  • Страна: США
  • Жанр: Фэнтези, драма, приключения, экранизация
  • Продолжительность серии: ~ 00:50:00
  • Перевод:
    Профессиональный (многоголосый закадровый) LostFilm
    Профессиональный (дублированный) - Amedia (Kravec)


Режиссер: Дэвид Наттер

В ролях:
Питер Динклэйдж / Peter Dinklage (Tyrion Lannister), Лина Хиди / Lena Headey (Cersei Lannister), Эмилия Кларк / Emilia Clarke (Daenerys Targaryen), Кит Харингтон / Kit Harington (Jon Snow), Николай Костер-Вальдау / Nikolaj Coster-Waldau (Jaime Lannister), Мэйси Уильямс / Maisie Williams (Arya Stark), Софи Тернер / Sophie Turner (Sansa Stark), Айзек Хемпстед-Райт / Isaac Hempstead Wright (Bran Stark)


Описание:
Гражданская война в Семи королевствах подходит к концу. Один король сражен тенью собственного брата, другой убит на свадьбе, третий царит на море, но на суше он никто. Четвертый по воле Владыки Света отправился к границе, разделяющей мир живых и мертвецов. Пятый же — на Железном троне и готовится к свадьбе и союзу, который навсегда покончит с притязаниями на престол со стороны… Если только не окажутся правдой слухи о последней из рода Таргариенов, ее драконах, воинах-безупречных и их победах в каких-то далеких землях. Но зима уже на пороге, урожай погиб, а Иные пробудились: одичалые бегут от них к Стене, дозорные — за Стену, и только калека со своими спутниками направляются в самое сердце Севера.

Тех.данные:
Качество: BDRip-AVC
Формат: MKV
Видео кодек: AVC (x264)
Аудио кодек: AC3
Видео: 1024x576 / 16:9 / 2002 kbps / 23.976 fps / 0.142 bit/pixel
Аудио:Rus 48,0 КГц, AC3 Dolby Digital, 5.1 ch, 384 Кбит/с/ |LostFilm|
Аудио:Rus 48,0 КГц, AC3 Dolby Digital, 2.0 ch, 192 Кбит/с/ |Amedia|
Аудио:Eng 48,0 КГц, AC3 Dolby Digital, 5.1 ch, 384 Кбит/с/ |Оригинал|
Субтитры:Русские (форсированные, полные), английские (полные)

Полное имя : C:\GOT\Season 05\GOT.[S05E01].2xRu.En.[qqss44].mkv
Формат : Matroska
Версия формата : Version 2
Размер файла : 1,08 Гбайт
Продолжительность : 52 м. 11 с.
Общий поток : 2966 Кбит/сек
Дата кодирования : UTC 2016-05-28 07:50:23
Программа кодирования : mkvmerge v7.9.0 ('Birds') 64bit
Библиотека кодирования : libebml v1.3.1 + libmatroska v1.4.2

Видео
Идентификатор : 1
Формат : AVC
Формат/Информация : Advanced Video Codec
Профиль формата : High@L4.1
Параметр CABAC формата : Да
Параметр ReFrames формата : 5 кадров
Идентификатор кодека : V_MPEG4/ISO/AVC
Продолжительность : 52 м. 11 с.
Битрейт : 2002 Кбит/сек
Ширина : 1024 пикселя
Высота : 576 пикселей
Соотношение сторон : 16:9
Режим частоты кадров : Постоянный
Частота кадров : 23,976 кадра/сек
Цветовое пространство : YUV
Субдискретизация насыщенности : 4:2:0
Битовая глубина : 8 бит
Тип развёртки : Прогрессивная
Бит/(Пиксели*Кадры) : 0.142
Размер потока : 748 Мбайт (68%)
Библиотека кодирования : x264 core 130 r2273 b3065e6
Настройки программы : cabac=1 / ref=5 / deblock=1:-3:-3 / analyse=0x3:0x133 / me=umh / subme=11 / psy=1 / psy_rd=1.00:0.20 / mixed_ref=1 / me_range=24 / chroma_me=1 / trellis=2 / 8x8dct=1 / cqm=0 / deadzone=21,11 / fast_pskip=0 / chroma_qp_offset=-3 / threads=12 / lookahead_threads=1 / sliced_threads=0 / nr=0 / decimate=0 / interlaced=0 / bluray_compat=0 / constrained_intra=0 / bframes=6 / b_pyramid=2 / b_adapt=2 / b_bias=0 / direct=3 / weightb=1 / open_gop=0 / weightp=2 / keyint=250 / keyint_min=23 / scenecut=40 / intra_refresh=0 / rc=2pass / mbtree=0 / bitrate=2002 / ratetol=1.0 / qcomp=0.60 / qpmin=0 / qpmax=69 / qpstep=4 / cplxblur=20.0 / qblur=0.5 / ip_ratio=1.40 / pb_ratio=1.30 / aq=1:1.00
Язык : English
Default : Да
Forced : Нет

Аудио #1
Идентификатор : 2
Формат : AC-3
Формат/Информация : Audio Coding 3
Расширение режима : CM (complete main)
Параметр Endianness формата : Big
Идентификатор кодека : A_AC3
Продолжительность : 52 м. 11 с.
Вид битрейта : Постоянный
Битрейт : 384 Кбит/сек
Каналы : 6 каналов
Расположение каналов : Front: L C R, Side: L R, LFE
Частота : 48,0 КГц
Частота кадров : 31,250 кадров/сек (1536 spf)
Битовая глубина : 16 бит
Метод сжатия : С потерями
Размер потока : 143 Мбайт (13%)
Заголовок : LostFilm
Язык : Russian
Default : Да
Forced : Нет

Аудио #2
Идентификатор : 3
Формат : AC-3
Формат/Информация : Audio Coding 3
Расширение режима : CM (complete main)
Параметр Endianness формата : Big
Идентификатор кодека : A_AC3
Продолжительность : 52 м. 11 с.
Вид битрейта : Постоянный
Битрейт : 192 Кбит/сек
Каналы : 2 канала
Расположение каналов : Front: L R
Частота : 48,0 КГц
Частота кадров : 31,250 кадров/сек (1536 spf)
Битовая глубина : 16 бит
Метод сжатия : С потерями
Размер потока : 71,7 Мбайт (6%)
Заголовок : Kravec-Amedia
Язык : Russian
Default : Нет
Forced : Нет

Аудио #3
Идентификатор : 4
Формат : AC-3
Формат/Информация : Audio Coding 3
Расширение режима : CM (complete main)
Параметр Endianness формата : Big
Идентификатор кодека : A_AC3
Продолжительность : 52 м. 11 с.
Вид битрейта : Постоянный
Битрейт : 384 Кбит/сек
Каналы : 6 каналов
Расположение каналов : Front: L C R, Side: L R, LFE
Частота : 48,0 КГц
Частота кадров : 31,250 кадров/сек (1536 spf)
Битовая глубина : 16 бит
Метод сжатия : С потерями
Размер потока : 143 Мбайт (13%)
Заголовок : Original
Язык : English
Default : Нет
Forced : Нет

Текст #1
Идентификатор : 5
Формат : ASS
Идентификатор кодека : S_TEXT/ASS
Идентификатор кодека/Информация : Advanced Sub Station Alpha
Продолжительность : 16 м. 4 с.
Битрейт : 3 бит/сек
Count of elements : 8
Метод сжатия : Без потерь
Размер потока : 448 байт (0%)
Заголовок : FORCED
Язык : Russian
Default : Нет
Forced : Нет

Текст #2
Идентификатор : 6
Формат : UTF-8
Идентификатор кодека : S_TEXT/UTF8
Идентификатор кодека/Информация : UTF-8 Plain Text
Продолжительность : 48 м. 46 с.
Битрейт : 91 бит/сек
Count of elements : 616
Размер потока : 32,6 Кбайт (0%)
Заголовок : 7kingdoms
Язык : Russian
Default : Нет
Forced : Нет

Текст #3
Идентификатор : 7
Формат : UTF-8
Идентификатор кодека : S_TEXT/UTF8
Идентификатор кодека/Информация : UTF-8 Plain Text
Продолжительность : 46 м. 49 с.
Битрейт : 56 бит/сек
Count of elements : 587
Размер потока : 19,5 Кбайт (0%)
Заголовок : Original
Язык : English
Default : Нет
Forced : Нет



Игра престолов |Game of Thrones
«Победа или смерть»

Информация:
  • Год выпуска: 2016
  • Страна: США
  • Жанр: Фэнтези, драма, приключения, экранизация
  • Продолжительность серии: ~ 00:50:00
  • Перевод:
    Профессиональный (многоголосый закадровый) LostFilm
    Профессиональный (дублированный) - Amedia (Kravec)


Режиссер: Дэвид Наттер

В ролях:
Питер Динклэйдж / Peter Dinklage (Tyrion Lannister), Лина Хиди / Lena Headey (Cersei Lannister), Эмилия Кларк / Emilia Clarke (Daenerys Targaryen), Кит Харингтон / Kit Harington (Jon Snow), Николай Костер-Вальдау / Nikolaj Coster-Waldau (Jaime Lannister), Мэйси Уильямс / Maisie Williams (Arya Stark), Софи Тернер / Sophie Turner (Sansa Stark), Айзек Хемпстед-Райт / Isaac Hempstead Wright (Bran Stark)


Описание:
Гражданская война в Семи королевствах подходит к концу. Один король сражен тенью собственного брата, другой убит на свадьбе, третий царит на море, но на суше он никто. Четвертый по воле Владыки Света отправился к границе, разделяющей мир живых и мертвецов. Пятый же — на Железном троне и готовится к свадьбе и союзу, который навсегда покончит с притязаниями на престол со стороны… Если только не окажутся правдой слухи о последней из рода Таргариенов, ее драконах, воинах-безупречных и их победах в каких-то далеких землях. Но зима уже на пороге, урожай погиб, а Иные пробудились: одичалые бегут от них к Стене, дозорные — за Стену, и только калека со своими спутниками направляются в самое сердце Севера.

Тех.данные:
Качество: BDRip-AVC
Формат: MKV
Видео кодек: AVC (x264)
Аудио кодек: AC3
Видео: 1024x576 / 16:9 / 2002 kbps / 23.976 fps / 0.142 bit/pixel
Аудио:Rus 48,0 КГц, AC3 Dolby Digital, 5.1 ch, 384 Кбит/с/ |LostFilm|
Аудио:Rus 48,0 КГц, AC3 Dolby Digital, 2.0 ch, 192 Кбит/с/ |Amedia|
Аудио:Eng 48,0 КГц, AC3 Dolby Digital, 5.1 ch, 384 Кбит/с/ |Оригинал|
Субтитры:Русские (форсированные, полные), английские (полные)

Полное имя : C:\GOT\Season 06\GOT.[S06E01].2xRu.En.[qqss44].mkv
Формат : Matroska
Версия формата : Version 2
Размер файла : 1,04 Гбайт
Продолжительность : 50 м. 4 с.
Общий поток : 2965 Кбит/сек
Название фильма : GOT.bS06E01B.BDRip.1080p.(qqss44)
Дата кодирования : UTC 2016-12-18 18:12:01
Программа кодирования : mkvmerge v7.9.0 ('Birds') 64bit
Библиотека кодирования : libebml v1.3.1 + libmatroska v1.4.2

Видео
Идентификатор : 1
Формат : AVC
Формат/Информация : Advanced Video Codec
Профиль формата : High@L4.1
Параметр CABAC формата : Да
Параметр ReFrames формата : 6 кадров
Идентификатор кодека : V_MPEG4/ISO/AVC
Продолжительность : 50 м. 4 с.
Битрейт : 2002 Кбит/сек
Ширина : 1024 пикселя
Высота : 576 пикселей
Соотношение сторон : 16:9
Режим частоты кадров : Постоянный
Частота кадров : 23,976 (24000/1001) кадра/сек
Цветовое пространство : YUV
Субдискретизация насыщенности : 4:2:0
Битовая глубина : 8 бит
Тип развёртки : Прогрессивная
Бит/(Пиксели*Кадры) : 0.142
Размер потока : 717 Мбайт (68%)
Библиотека кодирования : x264 core 148 r2744kMod b97ae06
Настройки программы : cabac=1 / ref=6 / deblock=1:-2:-2 / analyse=0x3:0x133 / me=umh / subme=11 / psy=1 / fade_compensate=0.00 / psy_rd=1.00:0.00 / mixed_ref=1 / me_range=32 / chroma_me=1 / trellis=2 / 8x8dct=1 / cqm=0 / deadzone=21,11 / fast_pskip=0 / chroma_qp_offset=-2 / threads=12 / lookahead_threads=2 / sliced_threads=0 / nr=0 / decimate=0 / interlaced=0 / bluray_compat=0 / constrained_intra=0 / bframes=9 / b_pyramid=2 / b_adapt=2 / b_bias=0 / direct=3 / weightb=1 / open_gop=0 / weightp=2 / keyint=240 / keyint_min=23 / scenecut=40 / intra_refresh=0 / rc=2pass / mbtree=0 / bitrate=2002 / ratetol=1.0 / qcomp=0.65 / qpmin=0 / qpmax=69 / qpstep=4 / cplxblur=20.0 / qblur=0.5 / ip_ratio=1.40 / pb_ratio=1.30 / aq=3:0.80
Язык : English
Default : Да
Forced : Нет

Аудио #1
Идентификатор : 2
Формат : AC-3
Формат/Информация : Audio Coding 3
Расширение режима : CM (complete main)
Параметр Endianness формата : Big
Идентификатор кодека : A_AC3
Продолжительность : 50 м. 4 с.
Вид битрейта : Постоянный
Битрейт : 384 Кбит/сек
Каналы : 6 каналов
Расположение каналов : Front: L C R, Side: L R, LFE
Частота : 48,0 КГц
Частота кадров : 31,250 кадров/сек (1536 spf)
Битовая глубина : 16 бит
Метод сжатия : С потерями
Размер потока : 138 Мбайт (13%)
Заголовок : LostFilm
Язык : Russian
Default : Да
Forced : Нет

Аудио #2
Идентификатор : 3
Формат : AC-3
Формат/Информация : Audio Coding 3
Расширение режима : CM (complete main)
Параметр Endianness формата : Big
Идентификатор кодека : A_AC3
Продолжительность : 50 м. 4 с.
Вид битрейта : Постоянный
Битрейт : 192 Кбит/сек
Каналы : 2 канала
Расположение каналов : Front: L R
Частота : 48,0 КГц
Частота кадров : 31,250 кадров/сек (1536 spf)
Битовая глубина : 16 бит
Метод сжатия : С потерями
Размер потока : 68,8 Мбайт (6%)
Заголовок : Kravec-Amedia
Язык : Russian
Default : Нет
Forced : Нет

Аудио #3
Идентификатор : 4
Формат : AC-3
Формат/Информация : Audio Coding 3
Расширение режима : CM (complete main)
Параметр Endianness формата : Big
Идентификатор кодека : A_AC3
Продолжительность : 50 м. 4 с.
Вид битрейта : Постоянный
Битрейт : 384 Кбит/сек
Каналы : 6 каналов
Расположение каналов : Front: L C R, Side: L R, LFE
Частота : 48,0 КГц
Частота кадров : 31,250 кадров/сек (1536 spf)
Битовая глубина : 16 бит
Метод сжатия : С потерями
Размер потока : 138 Мбайт (13%)
Заголовок : Original
Язык : English
Default : Нет
Forced : Нет

Текст #1
Идентификатор : 5
Формат : ASS
Идентификатор кодека : S_TEXT/ASS
Идентификатор кодека/Информация : Advanced Sub Station Alpha
Продолжительность : 11 м. 31 с.
Битрейт : 82 бит/сек
Count of elements : 82
Метод сжатия : Без потерь
Размер потока : 6,97 Кбайт (0%)
Заголовок : FORCED
Язык : Russian
Default : Нет
Forced : Нет

Текст #2
Идентификатор : 6
Формат : UTF-8
Идентификатор кодека : S_TEXT/UTF8
Идентификатор кодека/Информация : UTF-8 Plain Text
Продолжительность : 47 м. 2 с.
Битрейт : 71 бит/сек
Count of elements : 460
Размер потока : 24,7 Кбайт (0%)
Заголовок : FULL
Язык : Russian
Default : Нет
Forced : Нет

Текст #3
Идентификатор : 7
Формат : UTF-8
Идентификатор кодека : S_TEXT/UTF8
Идентификатор кодека/Информация : UTF-8 Plain Text
Продолжительность : 11 м. 31 с.
Битрейт : 32 бит/сек
Count of elements : 83
Размер потока : 2,75 Кбайт (0%)
Заголовок : FORCED
Язык : English
Default : Нет
Forced : Нет

Текст #4
Идентификатор : 8
Формат : UTF-8
Идентификатор кодека : S_TEXT/UTF8
Идентификатор кодека/Информация : UTF-8 Plain Text
Продолжительность : 42 м. 28 с.
Битрейт : 50 бит/сек
Count of elements : 467
Размер потока : 15,7 Кбайт (0%)
Заголовок : FULL
Язык : English
Default : Нет
Forced : Нет





rating
Премьера 7 сезона состоится 25 июня 2017, которая будет состоять из 7 серий
Руководство канала НВО официально подтвердило, что 8 сезон сериала "Игра престолов" станет финальным. Количество эпизодов пока не утверждено.

Сезон 1
      1.01 Зима близко / Winter Is Coming (08.09.2011)
      1.02 Королевский тракт / The Kingsroad (24.04.2011)
      1.03 Лорд Сноу / Lord Snow (01.05.2011)
      1.04 Калеки, бастарды и сломанные вещи / Cripples, Bastards, and Broken Things (08.05.2011)
      1.05 Волк и лев / The Wolf and the Lion (15.05.2011)
      1.06 Золотая корона / A Golden Crown (22.05.2011)
      1.07 Ты побеждаешь или погибаешь / You Win or You Die (29.05.2011)
      1.08 Острый конец / The Pointy End (05.06.2011)
      1.09 Бейелор / Baelor (12.06.2011)
      1.10 Пламя и кровь / Fire and Blood (19.06.2011)

Сезон 2
      2.01 Север помнит / The North Remembers (01.04.2012)
      2.02 Ночные земли / The Night Lands (08.04.2012)
      2.03 То, что мертво, умереть не может / What Is Dead May Never Die (15.04.2012)
      2.04 Сад костей / Garden of Bones (22.04.2012)
      2.05 Призрак Харренхола / The Ghost of Harrenhal (29.04.2012)
      2.06 Боги старые и новые / The Old Gods and the New (06.05.2012)
      2.07 Человек без чести / A Man Without Honor (13.05.2012)
      2.08 Принц Винтерфелла / The Prince of Winterfell (20.05.2012)
      2.09 Черноводная / Blackwater (27.05.2012)
      2.10 Валар Моргулис / Valar Morghulis (03.06.2012)

Сезон 3
      3.01 Валар Дохаэрис / Valar Dohaeris (31.03.2013)
      3.02 Чёрные крылья, чёрные вести / Dark Wings, Dark Words (07.04.2013)
      3.03 Стезя страданий / Walk of Punishment (14.04.2013)
      3.04 Теперь его дозор окончен / And Now His Watch Is Ended (21.04.2013)
      3.05 Поцелованная огнём / Kissed by Fire (28.04.2013)
      3.06 Подъём / The Climb (05.05.2013)
      3.07 Медведь и прекрасная дева / The Bear and the Maiden Fair (12.05.2013)
      3.08 Младшие Сыны / Second Sons (19.05.2013)
      3.09 Рейны из Кастамере / The Rains of Castamere (02.06.2013)
      3.10 Миса / Mhysa (09.06.2013)

Сезон 4
      4.01 Два меча / Two Swords (06.04.2014)
      4.02 Лев и Роза / The Lion and the Rose (13.04.2014)
      4.03 Разрушительница оков / Breaker of Chains (20.04.2014)
      4.04 Верный клятве / Oathkeeper (27.04.2014)
      4.05 Первый этого имени / First of His Name (04.05.2014)
      4.06 Законы богов и людей / The Laws of Gods and Men (11.05.2014)
      4.07 Пересмешник / Mockingbird (18.05.2014)
      4.08 Гора и Змей / The Mountain and the Viper (01.06.2014)
      4.09 Дозорные на Стене / The Watchers on the Wall (08.06.2014)
      4.10 Дети / The Children (15.06.2014)

Сезон 5
      5.01 Грядущие войны / The Wars to Come (12.04.2015)
      5.02 Чёрно-белый дом / The House of Black and White (19.04.2015)
      5.03 Его Воробейшество / High Sparrow (26.04.2015)
      5.04 Сыны Гарпии / Sons of the Harpy (03.05.2015)
      5.05 Убей мальчишку / Kill the Boy (10.05.2015)
      5.06 Непреклонные, несгибаемые, несдающиеся / Unbowed, Unbent, Unbroken (17.05.2015)
      5.07 Дар / The Gift (24.05.2015)
      5.08 Суровый дом / Hardhome (31.05.2015)
      5.09 Танец драконов / The Dance of Dragons (07.06.2015)
      5.10 Милосердие матери / Mother's Mercy (14.06.2015)

Сезон 6

      6.01 «Красная Женщина» (24.04.2016)
      6.02 «Дом» (01.05.2016)
      6.03 «Клятвопреступник» (08.05.2016)
      6.04 «Книга Неведомого» (15.05.2016)
      6.05 «Дверь» (22.05.2016)
      6.06 «Кровь моей крови» (29.05.2016)
      6.07 «Сломленный человек» (05.06.2016)
      6.08 «Никто» (12.06.2016)
      6.09 «Битва Бастардов» (19.06.2016)
      6.10 «Ветра зимы» (26.06.2016)

★ Сериал снят по мотивам серии романов Джорджа Р. Р. Мартина «Песнь Льда и Огня» (A Song of Ice and Fire, 1996 — н. в.).
★ В цикле Джорджа Р. Р. Мартина «Песнь Льда и Огня» Арья Старк — левша. Правша Мэйси Уильямс, исполняющая роль Арьи в экранизации, ради достоверности образа научилась полноценно пользоваться левой рукой.
★ Роль Кэйтилин Старк могла сыграть Джиллиан Андерсон.
★ Съёмки пилотного эпизода заняли почти месяц с 24 октября 2009 года по 19 ноября 2009 года.
★ Вскоре после окончания съёмок пилотной серии стало известно, что актрису Дженнифер Или (роль Кейтилин Старк) заменит Мишель Фэйрли, кроме того, исполнительницу одной из ключевых ролей Дейенерис Таргариен молодую актрису Тэмзин Мёрчант также заменили Эмилией Кларк. Это потребовало повторной съемки части сцен, включая пролог, при этом из-за накладок в расписании не все актеры пилотного эпизода смогли вернуться к пересъемкам, что потребовало замену актеров для еще трех персонажей. Режиссёр первого варианта пилотной серии сериала, Томас Маккарти, также не смог вернуться к повторным съемкам и был заменен, его имя не упоминается в титрах.
★ Основные съемки первого сезона проходили в студии Зал Краски (Paint Hall Studio) в Белфасте, Северная Ирландия, а также на Мальте (вместо планируемого первоначально Марокко). На Мальте съемки проходили в городах Мдина и Валлетта.
★ Эддарда Старка могли сыграть Лиам Нисон, Джерард Батлер, Вигго Мортенсен и Сэм Нил, но Дэвид Бениофф, Д. Б. Уайсс и Джордж Р. Р. Мартин сошлись на том, что Владыку Севера должен сыграть Шон Бин.
★ На роль Давоса Сиворта рассматривались Тим Рот и Дэвид Тьюлис.
★ Туннель, через который выезжают разведчики Ночного Дозора, на самом деле прорыт в склоне холма в каменоломне, где снимался Черный Замок. Стены у него из цемента.
★ Для сцены с обедом в трапезной Черного Замка сварили настолько неприятного вида кашу, что актер, игравший Пипа, отказался ее есть, а актер, игравший Гренна, в кадре пытается ее проглотить и не может.
★ Сериал содержит диалоги на искусственных языках, иностранных для Вестероса, — дотракийском и валирийском. Для их разработки компания HBO наняла лингвиста, который создал для каждого языка собственные словари, произношение и грамматическую структуру.
★ По словам создателей шоу Дэвида Бениоффа и Д. Б. Уайсса, автор книг-первоисточников Джордж Р. Р. Мартин сообщил им о концовке романов, и они видят полный сериал в виде восьми сезонов.
★ Эмилия Кларк не красила волосы для своей роли, а носила парик.
★ Производственный бюджет самой дорогостоящей серии — «Blackwater», в которой была показана битва на Черноводной — составил 8 миллионов долларов США.
★ Съёмки южных сцен второго сезона вместо Мальты проходили в городе Дубровник, Хорватия, и на соседнем острове Локрум. Сцены на Кулаке Первых Людей и в Клыках Мороза снимались в ноябре 2011 года в Исландии.
★ После завершения первого сезона, семья Софи Тернер приютила Зунни, собаку, которая играла волчицу Сансы Старк — Леди.
★ На самом деле Софи Тернер блондинка. Ей пришлось перекраситься в рыжий цвет для роли Сансы Старк.
★ Сцена, в которой Серсея разговаривает с Недом в башне Десницы, была отснята на съемках сериала самой первой.
★ В июне 2012 года в интернете получили распространение кадры из 10 эпизода, на которых одна из отрубленных голов напоминает лицом 43-го президента США Джорджа Буша мл. HBO отреагировало на скандал извинениями, объявив, что сцену с отрубленными головами отредактируют при выпуске на DVD. Как пояснил продюсер Дэвид Бениофф, создатели просто использовали те искусственные головы, которые могли достать поблизости.

Золотой глобус, 2015 год
Номинации (1):
★Лучший драматический сериал
Жорж, 2015 год
Номинации (1):
★Лучший зарубежный сериал (драма)
Премия Гильдии актеров, 2015 год
Победитель (1):
★Лучший каскадерский состав в телевизионном сериале
Номинации (2):
★Лучший актер драматического сериала(Питер Динклэйдж)
★Лучший актерский состав драматического сериала
Жорж, 2014 год
Победитель (1):
★Лучший зарубежный сериал (драма)
Сатурн, 2014 год
Номинации (5):
★Лучший молодой актер/актриса в телесериале(Джек Глисон)
★Лучший актер второго плана в телесериале(Николай Костер-Вальдау)
★Лучшая актриса второго плана в телесериале(Гвендолин Кристи)
★Лучшая актриса второго плана в телесериале(Мишель Фэйрли)
★Лучшая телепостановка
Эмми, 2014 год
Номинации (4):
★Лучший драматический сериал
★Лучшая мужская роль второго плана в драматическом сериале(Питер Динклэйдж)
★Лучшая женская роль второго плана в драматическом сериале(Лина Хиди)
★Лучшая приглашенная актриса в драматическом сериале(Дайана Ригг)
Премия Гильдии актеров, 2014 год
Победитель (1):
★Лучший каскадерский состав в телевизионном сериале
Номинации (2):
★Лучший актер драматического сериала(Питер Динклэйдж)
★Лучший актерский состав драматического сериала
Сатурн, 2013 год
Номинации (1):
★Лучшая телепостановка
Эмми, 2013 год
Номинации (4):
★Лучшая приглашенная актриса в драматическом сериале(Дайана Ригг) – «For playing Lady Olenna Tyrell»
★Лучшая мужская роль второго плана в драматическом сериале(Питер Динклэйдж) – «For playing Tyrion Lannister»
★Лучшая женская роль второго плана в драматическом сериале(Эмилия Кларк) – «For playing Daenerys Targaryen»
★Лучший драматический сериал
Премия Гильдии актеров, 2013 год
Победитель (1):
★Лучший каскадерский состав в телевизионном сериале
Золотой глобус, 2012 год
Победитель (1):
★Лучший актёр второго плана мини-сериала или фильма на ТВ(Питер Динклэйдж)
Номинации (1):
★Лучший драматический сериал
Сатурн, 2012 год
Номинации (4):
★Лучший телеактер(Шон Бин)
★Лучшая телеактриса(Лина Хиди)
★Лучший телеактер второго плана(Кит Харингтон)
★Лучшая телепостановка
Эмми, 2012 год
Номинации (2):
★Лучший драматический сериал
★Лучшая мужская роль второго плана в драматическом сериале(Питер Динклэйдж)
Премия Гильдии актеров, 2012 год
Победитель (1):
★Лучший каскадерский состав в телевизионном сериале
Номинации (1):
★Лучший актерский состав драматического сериала
Эмми, 2011 год
Победитель (2):
★Лучшая мужская роль второго плана в драматическом сериале(Питер Динклэйдж)
★Лучшие вступительные титры
Номинации (1):
★Лучший драматический сериал





Скачать Игра Престолов через торрент https://pic1.kartinco.top/images/10/giw1q.jpg Скачать, смотреть онлайн Игра Престолов бесплантно в хорошем качестве Описание: Гражданская война в Семи королевствах подходит к концу. Один король сражен тенью собственного брата, другой убит на свадьбе, ... 9.8 10 64
Info! Золотая раздача, скачанное не засчитывается.
Торрент: Зарегистрирован [2017-01-31 14:55] · скачан: 1 985 раз
Статус: √ проверено
Размер: 69.87 GB
Как cкачать? Как скачать Игра Престолов через торрент | UTorrent

% Раздел Тема Автор DL S | L
Игра престолов [ 109.58 GB ] Игра престолов / Game of Thrones / Сезон: 1-8 из 8 / Серии: 1-73 из 73 | DUB | DLRip 1080p sheker187 Скачать
2 | 4
Игра престолов [ 322.59 GB ] Игра престолов / Game of Thrones / Сезон: 1-8 из 8 / Серии: 1-73 из 73 | LostFilm | DLRip 1080p sheker187 Скачать
3 | 4
Игра престолов [ 297.23 GB ] Игра престолов / Game of Thrones / Сезон: 1-7 из 7 / Серии: 1-67 из 67 | LostFilm | 1080p sheker187 Скачать
1 | 0
Игра престолов [ 23.95 GB ] Игра престолов / Game of Thrones / Сезон: 8 / Серии: 1-6 из 6 | Amedia | 1080p bober100 Скачать
1 | 0
Игра престолов [ 55.77 GB ] Игра Престолов / Game Of Thrones / Сезоны: 1-8 / Серии: 1-73 из 73 / | LostFilm | BDRip,WEB-DL​Rip God_Slayer Скачать
6 | 3
Игра престолов [ 5.06 GB ] Игра престолов / Game of Thrones / Сезон: 8 / Серии: 1-6 из 6 | Amedia | DLRip bober100 Скачать
1 | 0
Игра престолов [ 5.63 GB ] Игра престолов / Game of Thrones / Сезон: 2 / Серии: 1-10 | LostFilm | HDTVRip wekotila Скачать
2 | 0



Последний раз редактировалось: God_Slayer (2017-01-31 17:54), всего редактировалось 1 раз

28-11-2019 20:33  

Отключить вcю реклaмy на сайте

31-01-2017 15:22 Игра Престолов Скачать торрент  

Цитата:

Премьера 7 сезона состоится 25 июня 2017

Будем ждать)))



01-02-2017 06:22 Игра Престолов Скачать торрент  

всё в одной раздаче, благодарочка



12-02-2017 13:17 Игра Престолов Скачать торрент  

Спасибо большое, только что то скорость маловата...



13-04-2017 11:41 Игра Престолов Скачать торрент  

вот спасибо-то



02-07-2017 17:29 Игра Престолов Скачать торрент  

Спасибочки! И рус и англ озвучка и разные субтитры! То что надо!



02-03-2018 20:33 Игра Престолов Скачать торрент  

God_Slayer, а можно еще добавить седьмой сезон(и с лост и амедиа)
было бы великолепно



    Дорогой пользователь! Огромная просьба, поблагодарите релизера, оцените раздачу и оставьте свои комментарий, если Вы скачали Игра Престолов через торрент бесплатно!!
    Комментировать посты могут только пользователи прошедшие не сложную регистрацию
    Показать сообщения:    


    Игра Престолов через торрент
    Скачать бесплатно Игра Престолов
    Игра Престолов скачать торрент
    Игра Престолов смотреть онлайн
    Cкачать фильм Игра Престолов бесплатно
    Игра Престолов скачать торрент в хорошем качестве
    Игра Престолов смотреть онлайн бесплатно в хорошем качестве
    Вы не можете начинать темы
    Вы не можете отвечать на сообщения
    Вы не можете редактировать свои сообщения
    Вы не можете удалять свои сообщения
    Вы не можете голосовать в опросах
    Вы не можете прикреплять файлы к сообщениям
    Вы можете скачивать файлы