1 сезон

3 сезон

iTunes

1

iTunes

DUB Netflix

iTunes

13

1 сезон

RePack

30

Deluxe

pack

Легкие деньги

ВАЖНО

ИГРА 18+

pack

RePack

MK11

RePack

jed

RePack

fifa19

RePack

RDR2

RePack

NEED FOR SPEED™ PAYBACK

4 сезон

9 сезон

Бесстыжие 9 сезон

Все сериалы

все сериалы на PB.wtf

RePack

FAR CRY 5

Anonymous, добрый день, мы не успеваем до 1 числа собрать деньги на оплату серверов, помогите нам пожалуйста в это трудное время. В качестве благодарности мы отключим Вам всю рекламу на сайте (укажите свой ник в строку Ваше имя)!

×
  
Magnet ссылка

Новая эра Z / The Girl with All the Gifts (Колм МакКарти) [2016 г., ужасы, триллер, драма, HDRip, Дубляж "BD RUS"] piratbit.org

Новая эра Z через торрент piratbit.org

Размер: 2.19 GB | Добавлен: 4 года 3 мес. назад | Торрент скачан:264 раза
Скачать  

02-02-2017 17:42 Новая эра Z Скачать торрент  

Новая эра Z / The Girl with All the Gifts
Год выпуска: 2016
Страна: США, Великобритания / Poison Chef, BFI Film Fund, Altitude Film Sales
Жанр: ужасы, триллер, драма
Продолжительность: 01:50:50
Перевод: Дубляж (BD RUS)

Режиссер: Колм МакКарти

rating

В ролях: Джемма Артертон, Гленн Клоуз, Пэдди Консидайн, Доминик Типпер, Анамария Маринка, Сенниа Нануа, Лобна Фьютерс, Энтони Уэльс, Дэниэл Иган, Фисайо Акинаде

Описание: Война миров не закончилась. Планету поразил страшный вирус. На людей стали нападать инфицированные особи, поставив человечество на грань исчезновения. Единственная надежда - второе поколение зараженных, опасных, но обладающих феноменальным, более высоким, чем у людей, интеллектом. Они - ключ к созданию спасительной вакцины. Поэтому их держат в специальном бункере, оберегая от контактов с внешним миром. Но однажды ситуация выходит из-под контроля.

Качество: HDRip
Формат: AVI
Видео кодек: XviD
Аудио кодек: AC3
Видео: 720x360 (2.00:1), 24.000 fps, XviD build 50 ~2374 kbps avg, 0.38 bit/pixel
Аудио: 48 kHz, AC3 Dolby Digital, 3/2 (L,C,R,l,r) + LFE ch, ~448 kbps

Общее
Полное имя : F:\ФИЛЬМЫ\Новая эра Z.2016.D.HDRip.avi
Формат : AVI
Формат/Информация : Audio Video Interleave
Профиль формата : OpenDML
Размер файла : 2,19 Гбайт
Продолжительность : 1 ч. 50 м.
Общий поток : 2829 Кбит/сек
Программа кодирования : VirtualDubMod 1.5.10.3 | www.virtualdub-fr.org || (build 2550/release)
Библиотека кодирования : VirtualDubMod build 2550/release

Видео
Идентификатор : 0
Формат : MPEG-4 Visual
Профиль формата : Advanced Simple@L5
Параметр BVOP формата : 1
Параметр QPel формата : Нет
Параметр GMC формата : Без точки перехода
Параметр матрицы формата : Default (MPEG)
Идентификатор кодека : XVID
Идентификатор кодека/Подсказка : XviD
Продолжительность : 1 ч. 50 м.
Битрейт : 2369 Кбит/сек
Ширина : 720 пикселей
Высота : 360 пикселей
Соотношение сторон : 2,000
Частота кадров : 24,000 кадра/сек
Цветовое пространство : YUV
Субдискретизация насыщенности : 4:2:0
Битовая глубина : 8 бит
Тип развёртки : Прогрессивная
Метод сжатия : С потерями
Бит/(Пиксели*Кадры) : 0.381
Размер потока : 1,83 Гбайт (84%)
Библиотека кодирования : XviD 1.2.1 (UTC 2008-12-04)

Аудио
Идентификатор : 1
Формат : AC-3
Формат/Информация : Audio Coding 3
Расширение режима : CM (complete main)
Параметр Endianness формата : Big
Идентификатор кодека : 2000
Продолжительность : 1 ч. 50 м.
Вид битрейта : Постоянный
Битрейт : 448 Кбит/сек
Каналы : 6 каналов
Расположение каналов : Front: L C R, Side: L R, LFE
Частота : 48,0 КГц
Частота кадров : 31,250 кадров/сек (1536 spf)
Битовая глубина : 16 бит
Метод сжатия : С потерями
Размер потока : 355 Мбайт (16%)
Выравнивание : Разделение по промежуткам
Продолжительность промежутка : 42 мс. (1,00 видеокадр)
Время предзагрузки промежутка : 500 мс.

piratbit.org



Скачать Новая эра Z через торрент https://pic1.kartinco.top/images/11/cyre5.jpg Скачать фильм Новая эра Z через торрент бесплантно в хорошем качестве Описание: Война миров не закончилась. Планету поразил страшный вирус. На людей стали нападать инфицированные особи, поставив человечество ... 9.9 10 9
Торрент: Зарегистрирован [2017-02-18 18:17] · скачан: 264 раз
Статус: √ проверено
Размер: 2.19 GB
Как cкачать? Как скачать Новая эра Z через торрент | UTorrent

% Раздел Тема Автор DL S | L
Фильмы 2016 [DVDrip, WEB-DLRip, HDrip] (DUB, MVO) [ 1.46 GB ] Новая эра Z / The Girl with All the Gifts [2016 BDRip] - [] Twi7ter Скачать
1 | 0
R.G. Resident & PiratVoice - Фильмы, Видео [ 2.43 GB ] Новая эра Z / The Girl with All the Gifts [2016 BDRip-AVC] [КиноПремиум HD] R.G.Resident schultz Скачать
1 | 0
Фильмы 2016 [DVDrip, WEB-DLRip, HDrip] (DUB, MVO) [ 1.41 GB ] Новая эра Z / The Girl with All the Gifts [2016 BDRip] - [КиноПремиум HD] Twi7ter Скачать
1 | 0
Фильмы 2016 [DVDrip, WEB-DLRip, HDrip] (DUB, MVO) [ 2.68 GB ] Новая эра Z / The Girl with All the Gifts [2016 BDRip-AVC] [] AVO от ExKinoRay Enigma2010 Скачать
1 | 0
Фильмы [HD 720p, 1080p] (Хороший звук DUB, MVO) [ 7.78 GB ] Новая эра Z / The Girl with All the Gifts [2016 BDRip 720p] DUB [КиноПремиум HD] bober100 Скачать
1 | 0
Фильмы [HD 720p, 1080p] (Хороший звук DUB, MVO) [ 8.22 GB ] Новая эра Z / The Girl with All the Gifts [2016 BDRip 1080p / DUB / ] Ворон Скачать
1 | 0
Фильмы 2016 [DVDrip, WEB-DLRip, HDrip] (DUB, MVO) [ 1.37 GB ] Новая эра Z / The Girl with All the Gifts [2016 HDRip] DUB [КиноПремиум HD] bober100 Скачать
1 | 0


Последний раз редактировалось: coc900 (2017-02-18 18:17), всего редактировалось 1 раз

28-11-2019 20:33  

Отключить всю рекламу на сайте

05-02-2017 17:15 Новая эра Z Скачать торрент  

Ужасная концовка. Фильм сам по себе интересный для фенов ходячих мертвецов.piratbit.org



18-02-2017 18:18 Новая эра Z Скачать торрент  

Релиз обновлен ! Просьба перекачать торрент файл ! piratbit.org



18-02-2017 18:44 Новая эра Z Скачать торрент  

Я не хочу ждать как мне показывает торрент 9 лет!))) Встань на раздачуpiratbit.org



18-02-2017 19:17 Новая эра Z Скачать торрент  

Концовка отличная, для нормальной драмы!. Вообще фильм прикольный. На раз, но достойноpiratbit.org



    Дорогой пользователь! Огромная просьба, поблагодарите релизера, оцените раздачу и оставьте свои комментарий, если Вы скачали Новая эра Z через торрент бесплатно! Внесите свою лепту в развитие PiratBit!
    Комментировать посты могут только пользователи прошедшие не сложную регистрацию
    Показать сообщения:    

    Новая эра Z через торрент
    Скачать бесплатно Новая эра Z
    Новая эра Z скачать торрент
    Новая эра Z смотреть онлайн
    Cкачать фильм Новая эра Z бесплатно
    Новая эра Z скачать торрент в хорошем качестве
    Новая эра Z смотреть онлайн бесплатно в хорошем качестве


    Вы не можете начинать темы
    Вы не можете отвечать на сообщения
    Вы не можете редактировать свои сообщения
    Вы не можете удалять свои сообщения
    Вы не можете голосовать в опросах
    Вы не можете прикреплять файлы к сообщениям
    Вы можете скачивать файлы