1 сезон

3 сезон

iTunes

1

iTunes

DUB Netflix

iTunes

13

1 сезон

RePack

30

Deluxe

pack

Легкие деньги

ВАЖНО

ИГРА 18+

pack

RePack

MK11

RePack

jed

RePack

fifa19

RePack

RDR2

RePack

NEED FOR SPEED™ PAYBACK

4 сезон

9 сезон

Бесстыжие 9 сезон

Все сериалы

все сериалы на PB.wtf

RePack

FAR CRY 5

Anonymous, добрый вечер, мы не успеваем до 1 числа собрать деньги на оплату серверов, помогите нам пожалуйста в это трудное время. В качестве благодарности мы отключим Вам всю рекламу на сайте (укажите свой ник в строку Ваше имя)!

×
  
Magnet ссылка

Прибытие / Arrival (Дени Вильнёв ) [2016, фантастика, триллер, драма, BDRip-AVC от potroks] Dub [iTunes] piratbit.org

Прибытие через торрент piratbit.org

Размер: 2.13 GB | Добавлен: 4 года 4 мес. назад | Торрент скачан:763 раза
Скачать  

04-02-2017 13:49 Прибытие Скачать торрент  

Прибытие / Arrival

Год выпуска: 2016
Страна: США / 21 Laps Entertainment, FilmNation Entertainment, Lava Bear Films
Жанр: фантастика, триллер, драма, детектив
Продолжительность: 01:56:22
Перевод: Дубляж [iTunes]
Субтитры: русские форс. (дополнены)), русские (iTunes), английские (Full + SDH + SDH-Colored)
Навигация по главам: есть
Режиссер: Дени Вильнёв
В ролях:

Эми Адамс (Louise Banks), Джереми Реннер (Ian Donnelly), Майкл Стулбарг (Agent Halpern), Форест Уитакер (Colonel Weber), Сангита Патель (Newscaster 1), Ци Ма (General Shang), Эбигейл Пнёвски (Hannah (8 yrs. old)), Марк О’Брайэн (Captain Marks), Рут Чианг (Chinese Scientist), Джейдин Мэлоун (Hannah (6 yr old)), Анана Ридвальд (Danish Scientist), Натали Тибо (Gala Guest)
Описание: Неожиданное появление неопознанных летающих объектов в разных точках планеты повергает мир в трепет. Намерения пришельцев не ясны - вооруженные силы всего мира приведены в полную боевую готовность, а лучшие умы человечества пытаются понять, как разговаривать с непрошенными гостями. Правительство обращается за помощью к лингвисту Луизе Бэнкс и физику Яну Доннели, чтобы предотвратить глобальную катастрофу и найти общий язык с пришельцами. Отныне судьба человечества находится в их руках.

Качество: BDRip-AVC
Формат: MKV
Видео: AVC, 1032x432 (2.40:1), 1786 kbps, 23,976 fps, 0,167 bpp
Аудио №1: AC3 / 5.1 / 48 kHz / 384 kbps / 16 bit | RUS
Аудио №2: AC3 / 5.1 / 48 kHz / 448 kbps / 16 bit | ENG
General
Unique ID : 227672072159631612710280214164504304688 (0xAB480BCEFF8D321FACFC5B74AD27DC30)
Complete name : D:\Pribytiye.2016.DUAL.BDRip.x264.-HELLYWOOD.mkv
Format : Matroska
Format version : Version 4 / Version 2
File size : 2.13 GiB
Duration : 1 h 56 min
Overall bit rate : 2 620 kb/s
Movie name : Arrival (2016)
Encoded date : UTC 2017-02-04 13:28:27
Writing application : mkvmerge v5.9.0 ('On The Loose') built on Dec 15 2012 16:39:58
Writing library : libebml v1.3.0 + libmatroska v1.4.0

Video
ID : 1
Format : AVC
Format/Info : Advanced Video Codec
Format profile : High@L4.1
Format settings, CABAC : Yes
Format settings, ReFrames : 10 frames
Codec ID : V_MPEG4/ISO/AVC
Duration : 1 h 56 min
Bit rate : 1 786 kb/s
Width : 1 032 pixels
Height : 432 pixels
Display aspect ratio : 2.40:1
Frame rate mode : Constant
Frame rate : 23.976 (24000/1001) FPS
Color space : YUV
Chroma subsampling : 4:2:0
Bit depth : 8 bits
Scan type : Progressive
Bits/(Pixel*Frame) : 0.167
Stream size : 1.41 GiB (66%)
Title : potroks
Writing library : x264 core 148 r2762M 90a61ec
Encoding settings : cabac=1 / ref=10 / deblock=1:-2:-2 / analyse=0x3:0x133 / me=umh / subme=11 / psy=1 / psy_rd=1.00:0.10 / mixed_ref=1 / me_range=48 / chroma_me=1 / trellis=2 / 8x8dct=1 / cqm=0 / deadzone=21,11 / fast_pskip=0 / chroma_qp_offset=-3 / threads=9 / lookahead_threads=2 / sliced_threads=0 / nr=0 / decimate=0 / interlaced=0 / bluray_compat=0 / constrained_intra=0 / bframes=11 / b_pyramid=2 / b_adapt=2 / b_bias=11 / direct=3 / weightb=1 / open_gop=0 / weightp=2 / keyint=240 / keyint_min=23 / scenecut=40 / intra_refresh=0 / rc_lookahead=150 / rc=2pass / mbtree=0 / bitrate=1786 / ratetol=1.0 / qcomp=0.70 / qpmin=0 / qpmax=69 / qpstep=4 / cplxblur=20.0 / qblur=0.5 / vbv_maxrate=50000 / vbv_bufsize=50000 / nal_hrd=none / filler=0 / ip_ratio=1.40 / pb_ratio=1.30 / aq=1:0.80
Language : English
Default : Yes
Forced : No

Audio #1
ID : 2
Format : AC-3
Format/Info : Audio Coding 3
Mode extension : CM (complete main)
Format settings, Endianness : Big
Codec ID : A_AC3
Duration : 1 h 56 min
Bit rate mode : Constant
Bit rate : 384 kb/s
Channel(s) : 6 channels
Channel positions : Front: L C R, Side: L R, LFE
Sampling rate : 48.0 kHz
Frame rate : 31.250 FPS (1536 spf)
Compression mode : Lossy
Stream size : 320 MiB (15%)
Title : Dub | DD 5.1 @ 384 kbps - iTunes
Language : Russian
Default : Yes
Forced : No

Audio #2
ID : 3
Format : AC-3
Format/Info : Audio Coding 3
Mode extension : CM (complete main)
Format settings, Endianness : Big
Codec ID : A_AC3
Duration : 1 h 56 min
Bit rate mode : Constant
Bit rate : 448 kb/s
Channel(s) : 6 channels
Channel positions : Front: L C R, Side: L R, LFE
Sampling rate : 48.0 kHz
Frame rate : 31.250 FPS (1536 spf)
Compression mode : Lossy
Stream size : 373 MiB (17%)
Title : Original | DD 5.1 @ 448 kbps
Language : English
Default : No
Forced : No

Text #1
ID : 4
Format : UTF-8
Codec ID : S_TEXT/UTF8
Codec ID/Info : UTF-8 Plain Text
Title : Forced
Language : Russian
Default : Yes
Forced : No

Text #2
ID : 5
Format : UTF-8
Codec ID : S_TEXT/UTF8
Codec ID/Info : UTF-8 Plain Text
Title : iTunes
Language : Russian
Default : No
Forced : No

Text #3
ID : 6
Format : UTF-8
Codec ID : S_TEXT/UTF8
Codec ID/Info : UTF-8 Plain Text
Title : Full
Language : English
Default : No
Forced : No

Text #4
ID : 7
Format : UTF-8
Codec ID : S_TEXT/UTF8
Codec ID/Info : UTF-8 Plain Text
Title : SDH
Language : English
Default : No
Forced : No

Text #5
ID : 8
Format : UTF-8
Codec ID : S_TEXT/UTF8
Codec ID/Info : UTF-8 Plain Text
Title : SDH-Colored
Language : English
Default : No
Forced : No

Menu
00:00:00.000 : en:00:00:00.000
00:09:49.923 : en:00:09:49.923
00:17:33.552 : en:00:17:33.552
00:23:28.282 : en:00:23:28.282
00:33:54.157 : en:00:33:54.157
00:41:01.709 : en:00:41:01.709
00:52:26.101 : en:00:52:26.101
00:57:34.576 : en:00:57:34.576
01:03:06.449 : en:01:03:06.449
01:09:29.207 : en:01:09:29.207
01:16:09.398 : en:01:16:09.398
01:25:21.825 : en:01:25:21.825
01:35:37.065 : en:01:35:37.065
01:45:26.695 : en:01:45:26.695
piratbit.org



Скачать Прибытие через торрент http://i91.fastpic.ru/big/2017/0204/3b/072f2725df10cbbfdc5bc27d27feda3b.png Скачать фильм Прибытие через торрент бесплантно в хорошем качестве Описание: Неожиданное появление неопознанных летающих объектов в разных точках планеты повергает мир в трепет. Намерения пришельцев не ... 7.9 10 19
Info! Золотая раздача, скачанное не засчитывается.
Торрент: Зарегистрирован [2017-02-04 13:49] · скачан: 763 раз
Статус: √ проверено
Размер: 2.13 GB
Как cкачать? Как скачать Прибытие через торрент | UTorrent

% Раздел Тема Автор DL S | L
Ultra HD (UHD: 2K, 4K, 8K) — видео сверхвысокой чёткости [ 19.43 GB ] Прибытие / Arrival [2016 UHD BDRip 2160p] [SDR] DUB + 2xAVO sheker187 Скачать
1 | 0
Ultra HD (UHD: 2K, 4K, 8K) — видео сверхвысокой чёткости [ 68.63 GB ] Прибытие / Arrival [2016 UHD BDRemux 2160p] DUB + MVO + 7xAVO sheker187 Скачать
1 | 0
Фильмы [HD 720p, 1080p] (Хороший звук DUB, MVO) [ 18.21 GB ] Прибытие / The Arrival [1996 BDRip 1080p by msltel] 2 x MVO 3 x DVO 3 x AVO msltel Скачать
1 | 0
Фильмы [HD 720p, 1080p] (Хороший звук DUB, MVO) [ 8.31 GB ] Прибытие / The Arrival [1996 BDRip 720p by msltel] 2 x MVO 3 x DVO 3 x AVO msltel Скачать
1 | 0
T Фильмы 2017 [DVDrip, WEB-DLRip, HDrip] (DUB, MVO) [ 1.6 GB ] Смерть по прибытии / Dead on Arrival [2017 трилле WEB-DLRip-AVC] MVO [HDRezka Studio] bober100 Скачать
1 | 0
Фильмы 2016 [DVDrip, WEB-DLRip, HDrip] (DUB, MVO) [ 2.18 GB ] Прибытие / Arrival [2016 BDRip-AVC] sokol_ok Скачать
2 | 0
T Фильмы (WEB-DL 720p, 1080p) [ 3.44 GB ] Смерть по прибытии / Dead on Arrival [2017 WEB-DL 1080p] MVO [HDrezka Studio] sokol_ok Скачать
1 | 0

28-11-2019 20:33  

Отключить всю рекламу на сайте

26-02-2017 11:56 Прибытие Скачать торрент  

Цитата:

Прибытие / Arrival (Дени Вильнёв ) [2016, фантастика, триллер, драма, BDRip-AVC от potroks] Dub [iTunes]

БРЕД! СНИМАЮТ ЖЕ ТАКОЕ Г...О. АВТОРАМ СОВЕТ СЖИГАТЬ ТАКОЕ КИНО ДО ВЫХОДА..piratbit.org



04-03-2017 06:12 Прибытие Скачать торрент  

anbobrik писал(а):

Цитата:

Прибытие / Arrival (Дени Вильнёв ) [2016, фантастика, триллер, драма, BDRip-AVC от potroks] Dub [iTunes]

БРЕД! СНИМАЮТ ЖЕ ТАКОЕ Г...О. АВТОРАМ СОВЕТ СЖИГАТЬ ТАКОЕ КИНО ДО ВЫХОДА..

Комментарий любителя трансформеров и терминаторов piratbit.org



    Дорогой пользователь! Огромная просьба, поблагодарите релизера, оцените раздачу и оставьте свои комментарий, если Вы скачали Прибытие через торрент бесплатно! Внесите свою лепту в развитие PiratBit!
    Комментировать посты могут только пользователи прошедшие не сложную регистрацию
    Показать сообщения:    

    Прибытие через торрент
    Скачать бесплатно Прибытие
    Прибытие скачать торрент
    Прибытие смотреть онлайн
    Cкачать фильм Прибытие бесплатно
    Прибытие скачать торрент в хорошем качестве
    Прибытие смотреть онлайн бесплатно в хорошем качестве


    Вы не можете начинать темы
    Вы не можете отвечать на сообщения
    Вы не можете редактировать свои сообщения
    Вы не можете удалять свои сообщения
    Вы не можете голосовать в опросах
    Вы не можете прикреплять файлы к сообщениям
    Вы можете скачивать файлы