1 сезон

3 сезон

iTunes

1

iTunes

DUB Netflix

iTunes

13

1 сезон

RePack

30

Deluxe

pack

Легкие деньги

ВАЖНО

ИГРА 18+

pack

RePack

MK11

RePack

jed

RePack

fifa19

RePack

RDR2

RePack

NEED FOR SPEED™ PAYBACK

4 сезон

9 сезон

Бесстыжие 9 сезон

Все сериалы

все сериалы на PB.wtf

RePack

FAR CRY 5

Anonymous, доброй ночи, мы не успеваем до 1 числа собрать деньги на оплату серверов, помогите нам пожалуйста в это трудное время. В качестве благодарности мы отключим Вам всю рекламу на сайте (укажите свой ник в строку Ваше имя)!

×
  
Magnet ссылка

Ведьма любви / The Love Witch (Анна Биллер) [2016 г., ужасы, комедия, WEB-DLRip, Любительский (многоголосый) (Синема УС)] piratbit.org

Ведьма любви через торрент piratbit.org

Размер: 2.05 GB | Добавлен: 4 года 4 мес. назад | Торрент скачан:575 раз
Скачать  

07-02-2017 07:28 Ведьма любви Скачать торрент  

Ведьма любви / The Love Witch
Год выпуска: 2016
Страна: США
Жанр: ужасы, комедия
Продолжительность: 02:02:04
Перевод: Любительский (многоголосый)(Синема УС)
Субтитры: нет

Режиссер: Анна Биллер

Бюджет: $1 000 000
Премьера в мире: 31 января 2016,

rating

В ролях: Саманта Робинсон, Джан Кис, Лаура Уоддэлл, Джефф Парис, Джаред Санфорд, Роберт Сили, Дженнифер Ингрум, Рэнди Эванс

Описание: В некоем странном мире, стилизованном под Америку 60-х годов, молодая ведьма очень хочет любить и быть любимой. А для этого все средства хороши. Она выбирает самых отборных самцов и использует все свои заговоры и женские штучки, чтобы приворожить очередного красавчика. Но вот беда — сильные снаружи, слабые внутри они не выдерживают чар хрупкой женщины и умирают...

Доп. информация: 18+присутствуют сцены эротического содержания.Реклама есть.

Качество: WEB-DLRip
Формат: AVI
Видео кодек: XviD
Аудио кодек: AC3
Видео: 720x384 (1.85:1), 24.000 fps, XviD ~2 016 kbps avg
Аудио: 48 kHz, AC3 Dolby Digital, 2/0 (L,R) ch, ~384 kbps



General
Complete name : H:\релизы.торрентфайл\The.Love.Witch.2016.P.WEB-DLRip.21OOMB_KOSHARA.avi
Format : AVI
Format/Info : Audio Video Interleave
Format profile : OpenDML
File size : 2.05 GiB
Duration : 2h 2mn
Overall bit rate : 2 407 Kbps
Writing application : VirtualDubMod 1.5.10.2 (build 2540/release)
Writing library : VirtualDubMod build 2540/release

Video
ID : 0
Format : MPEG-4 Visual
Format profile : Advanced Simple@L5
Format settings, BVOP : 2
Format settings, QPel : No
Format settings, GMC : No warppoints
Format settings, Matrix : Default (MPEG)
Codec ID : XVID
Codec ID/Hint : XviD
Duration : 2h 2mn
Bit rate : 2 011 Kbps
Width : 720 pixels
Height : 384 pixels
Display aspect ratio : 1.85:1
Frame rate : 24.000 fps
Color space : YUV
Chroma subsampling : 4:2:0
Bit depth : 8 bits
Scan type : Progressive
Compression mode : Lossy
Bits/(Pixel*Frame) : 0.303
Stream size : 1.71 GiB (84%)
Writing library : XviD 1.2.1 (UTC 2008-12-04)

Audio
ID : 1
Format : AC-3
Format/Info : Audio Coding 3
Mode extension : CM (complete main)
Format settings, Endianness : Big
Codec ID : 2000
Duration : 2h 2mn
Bit rate mode : Constant
Bit rate : 384 Kbps
Channel(s) : 2 channels
Channel positions : Front: L R
Sampling rate : 48.0 KHz
Bit depth : 16 bits
Compression mode : Lossy
Stream size : 335 MiB (16%)
Alignment : Split accross interleaves
Interleave, duration : 42 ms (1.00 video frame)
Interleave, preload duration : 500 ms

piratbit.org



Скачать Ведьма любви через торрент https://pic1.kartinco.top/images/11/5v8sn.jpg Скачать фильм Ведьма любви через торрент бесплантно в хорошем качестве Описание: В некоем странном мире, стилизованном под Америку 60-х годов, молодая ведьма очень хочет любить и быть любимой. А для этого все ... 10 10 9
Торрент: Зарегистрирован [2017-02-07 07:28] · скачан: 575 раз
Статус: T временная
Размер: 2.05 GB
Как cкачать? Как скачать Ведьма любви через торрент | UTorrent

% Раздел Тема Автор DL S | L
T Релизы по Парсеру [Игры, Сериалы и Фильмы и другое...] [ 1.37 GB ] Ведьма любви / The Love Witch [2016 HDRip Любительский ] Sherif Скачать
1 | 0

28-11-2019 20:33  

Отключить всю рекламу на сайте


07-02-2017 17:20 Ведьма любви Скачать торрент  

тема сисеГ раскрыта piratbit.org



07-02-2017 18:58 Ведьма любви Скачать торрент  

swat48 писал(а):

тема сисеГ раскрыта

о спс за пост, бум качать.piratbit.org



07-02-2017 19:19 Ведьма любви Скачать торрент  

swat48 писал(а):

тема сисеГ раскрыта

Все как заказывали.piratbit.org



08-02-2017 12:02 Ведьма любви Скачать торрент  

где вы взяли это г?
Кин-дза-дза!!! piratbit.org



08-02-2017 14:17 Ведьма любви Скачать торрент  

это конечно полная жесть, больше похоже на арт хаусpiratbit.org



    Дорогой пользователь! Огромная просьба, поблагодарите релизера, оцените раздачу и оставьте свои комментарий, если Вы скачали Ведьма любви через торрент бесплатно! Внесите свою лепту в развитие PiratBit!
    Комментировать посты могут только пользователи прошедшие не сложную регистрацию
    Показать сообщения:    

    Ведьма любви через торрент
    Скачать бесплатно Ведьма любви
    Ведьма любви скачать торрент
    Ведьма любви смотреть онлайн
    Cкачать фильм Ведьма любви бесплатно
    Ведьма любви скачать торрент в хорошем качестве
    Ведьма любви смотреть онлайн бесплатно в хорошем качестве


    Вы не можете начинать темы
    Вы не можете отвечать на сообщения
    Вы не можете редактировать свои сообщения
    Вы не можете удалять свои сообщения
    Вы не можете голосовать в опросах
    Вы не можете прикреплять файлы к сообщениям
    Вы можете скачивать файлы