2 сезон

iTunes

MVO

1

2 сезон

iTunes

iTunes

1 сезон

RePack

30

Новинка

ВАЖНО

ИГРА 18+

pack

RePack

MK11
pack

Легкие деньги

RePack

jed

RePack

fifa19

RePack

RDR2

RePack

NEED FOR SPEED™ PAYBACK

4 сезон

9 сезон

Бесстыжие 9 сезон

Все сериалы

все сериалы на PB.wtf

RePack

FAR CRY 5

Anonymous, добрый день, мы не успеваем собрать деньги на оплату серверов за декабрь и январь, помогите нам пожалуйста в это трудное время. В качестве благодарности мы отключим Вам всю рекламу на сайте (укажите свой ник в строку Ваше имя)!

×
  
Magnet ссылка

Человек, гепард, природа / Man, cheetan, wild / Сезон: 1 / Серии: 1-2 из 2 (Ким Вольхатер) [2013 г., Документальный, HDTVRip, Профессиональный (одноголосый] от R.G.Resident piratbit.org

Скачать  

07-02-2017 09:24 Человек, гепард, природа Скачать торрент  

Человек гепард природа / Man cheetan wild
Год выпуска: 2013
Страна: Канал Animal Planet
Жанр: Документальный
Продолжительность: 2 х ~ 00:44:00
Перевод: Профессиональный (одноголосый)

Режиссер: Ким Вольхатер

Описание: Ким Вольхатер — человек, ставший своим в мире дикой природы. Он выследил самку гепарда с пятью котятами и 18 месяцев жил рядом с ними

Качество: HDTVRip
Формат: AVI
Видео кодек: 720x400 (1.80:1), 25 fps, XviD build 65 ~1557 kbps avg, 0.22 bit/pixel
Аудио кодек: 48 kHz, AC3 Dolby Digital, 2/0 (L,R) ch, ~192.00 kbps avg
Релиз от: ruslanishe

General
Chelovek.gepard.priroda.XviD.213.HDTVRip.R.G.Resident\001.avi
Format : AVI
Format/Info : Audio Video Interleave
File size : 550 MiB
Duration : 43mn 43s
Overall bit rate : 1 760 Kbps
Director : ruslanishe
Writing application : VirtualDubMod 1.5.10.3 | www.virtualdub-fr.org || (build 2550/release)
Copyright : R.G.Resident

Video
ID : 0
Format : MPEG-4 Visual
Format profile : Advanced Simple@L5
Format settings, BVOP : 2
Format settings, QPel : No
Format settings, GMC : No warppoints
Format settings, Matrix : Custom
Codec ID : XVID
Codec ID/Hint : XviD
Duration : 43mn 43s
Bit rate : 1 558 Kbps
Width : 720 pixels
Height : 400 pixels
Display aspect ratio : 16:9
Frame rate : 25.000 fps
Color space : YUV
Chroma subsampling : 4:2:0
Bit depth : 8 bits
Scan type : Progressive
Compression mode : Lossy
Bits/(Pixel*Frame) : 0.216
Stream size : 487 MiB (89%)
Writing library : XviD 65

Audio
ID : 1
Format : AC-3
Format/Info : Audio Coding 3
Mode extension : CM (complete main)
Format settings, Endianness : Big
Codec ID : 2000
Duration : 43mn 43s
Bit rate mode : Constant
Bit rate : 192 Kbps
Channel(s) : 2 channels
Channel positions : Front: L R
Sampling rate : 48.0 KHz
Bit depth : 16 bits
Compression mode : Lossy
Stream size : 60.1 MiB (11%)
Alignment : Split accross interleaves
Interleave, duration : 40 ms (1.00 video frame)
Interleave, preload duration : 500 ms

piratbit.org



Скачать
Чтобы иметь возможность скачивать с Торрент Трекера, нужно Зарегистрироваться

Как скачивать  ·  Рейтинг и ограничения

28-11-2019 20:33  

Отключить всю рекламу на сайте

    Дорогой пользователь! Огромная просьба, поблагодарите релизера, оцените раздачу и оставьте свои комментарий, если Вы скачали Человек, гепард, природа через торрент бесплатно! Внесите свою лепту в развитие PiratBit!
    Комментировать посты могут только пользователи прошедшие не сложную регистрацию
    Показать сообщения:    

    Человек, гепард, природа через торрент
    Скачать бесплатно Человек, гепард, природа
    Человек, гепард, природа скачать торрент
    Человек, гепард, природа смотреть онлайн
    Cкачать фильм Человек, гепард, природа бесплатно
    Человек, гепард, природа скачать торрент в хорошем качестве
    Человек, гепард, природа смотреть онлайн бесплатно в хорошем качестве


    Вы не можете начинать темы
    Вы не можете отвечать на сообщения
    Вы не можете редактировать свои сообщения
    Вы не можете удалять свои сообщения
    Вы не можете голосовать в опросах
    Вы не можете прикреплять файлы к сообщениям
    Вы не можете скачивать файлы