Ссылка на приватное зеркало нашего сайта всего за 1$. Внимание количество ограничено!!!

2 сезон

iTunes

iTunes

1

iTunes

iTunes

iTunes

WEBRip

iTunes

30
pack

Забери бонус

ВАЖНО

!!Акция!!

Alien_RageХит недели

RePack

RESIDENT EVIL 3: NEMESIS REMAKE

ИГРА 18+

pack

RePack

jed

!!Акция!!

Alien_Rage

RePack

fifa19

RePack

Assassins Creed: Odyssey

RePack

NEED FOR SPEED™ PAYBACK

4 сезон

9 сезон

Бесстыжие 9 сезон

Все сериалы

все сериалы на PB.wtf

RePack

FAR CRY 5
  

Жёлтый дом / The Yellow House (Крис Дурлахер) [2007, драма, PDTVRip] Профессиональный (одноголосый) piratbit.org

Жёлтый дом через торрент piratbit.org

Раздают: 1 [ 0 KB/s ]
Размер: 636 MB | Добавлен: 3 года 7 мес. назад | Торрент скачан:21 раз
Скачать  

08-02-2017 16:11 Жёлтый дом Скачать торрент  

Жёлтый дом / The Yellow House

Год выпуска: 2007
Страна: Великобритания
Жанр: драма
Продолжительность: 01:13:04
Перевод: Профессиональный (одноголосый)
Режиссер: Крис Дурлахер
В ролях:

Кевин Элдон (Jaques), Саймон Фарнэби (Henri), Дебора Файндлей (Madame Roulin), Скотт Хэнди (Theo van Gogh), Джон Линч (Paul Gauguin), Клайв Расселл (Monsieur Roulin), Джон Симм (Vincent Van Gogh), Сара Смарт (Rachel)
Описание:
История о двух, пожалуй, самых знаменитых соседях в истории искусства - Винсенте Ван Гоге и Поле Гогене. Два месяца - ноябрь и декабрь 1888 года - Ван Гог и Гоген прожили под крышей «Желтого дома» в Арле на юге Франции. Они пренебрегли общественным мнением, оставили семьи, друзей и полностью посвятили себя искусству. Перешагнув порог 30-летия, все еще находясь на мели, художники видели друг в друге последнюю надежду на успех.
Рейтинг:

Качество: PDTVRip
Формат: AVI
Видео: XviD, 704x396 (1.222), 946 kbps, 25 fps, 0,136 bpp
Аудио №1: русский / MP3 / 2.0 / 44 kHz / 128 kbps /
Аудио №2: английский / MP3 / 2.0 / 48 kHz / 128 kbps /
General
Complete name : E:\The Yellow House.XviD.rus-eng.avi
Format : AVI
Format/Info : Audio Video Interleave
File size : 636 MiB
Duration : 1 h 13 min
Overall bit rate : 1 217 kb/s
Writing application : VirtualDubMod 1.5.10.2 (build 2540/release)
Writing library : VirtualDubMod build 2540/release

Video
ID : 0
Format : MPEG-4 Visual
Format profile : Advanced Simple@L5
Format settings, BVOP : 2
Format settings, QPel : No
Format settings, GMC : No warppoints
Format settings, Matrix : Default (H.263)
Muxing mode : Packed bitstream
Codec ID : XVID
Codec ID/Hint : XviD
Duration : 1 h 13 min
Bit rate : 947 kb/s
Width : 704 pixels
Height : 396 pixels
Display aspect ratio : 1.222
Original display aspect ratio : 16:9
Frame rate : 25.000 FPS
Color space : YUV
Chroma subsampling : 4:2:0
Bit depth : 8 bits
Scan type : Progressive
Compression mode : Lossy
Bits/(Pixel*Frame) : 0.136
Stream size : 495 MiB (78%)
Writing library : XviD 1.1.2 (UTC 2006-11-01)

Audio #1
ID : 1
Format : MPEG Audio
Format version : Version 1
Format profile : Layer 3
Codec ID : 55
Codec ID/Hint : MP3
Duration : 1 h 13 min
Bit rate mode : Constant
Bit rate : 128 kb/s
Channel(s) : 2 channels
Sampling rate : 44.1 kHz
Compression mode : Lossy
Stream size : 66.9 MiB (11%)
Alignment : Split accross interleaves
Interleave, duration : 40 ms (1.00 video frame)
Interleave, preload duration : 500 ms

Audio #2
ID : 2
Format : MPEG Audio
Format version : Version 1
Format profile : Layer 3
Mode : Joint stereo
Mode extension : MS Stereo
Codec ID : 55
Codec ID/Hint : MP3
Duration : 1 h 13 min
Bit rate mode : Constant
Bit rate : 128 kb/s
Channel(s) : 2 channels
Sampling rate : 48.0 kHz
Compression mode : Lossy
Stream size : 66.9 MiB (11%)
Alignment : Split accross interleaves
Interleave, duration : 40 ms (1.00 video frame)
Interleave, preload duration : 500 ms
piratbit.org



Скачать Жёлтый дом через торрент http://i5.imageban.ru/out/2017/02/08/91f7f690d3f8ddd9e93551b3225a60a4.jpg Скачать фильм Жёлтый дом через торрент бесплантно в хорошем качестве Описание: История о двух, пожалуй, самых знаменитых соседях в истории искусства - Винсенте Ван Гоге и Поле Гогене. Два месяца - ноябрь и ... 8 10 1
Торрент: Зарегистрирован [2017-02-08 16:11] · скачан: 21 раз
Статус: √ проверено
Размер: 636 MB
Как cкачать? Как скачать Жёлтый дом через торрент | qTorrent

28-11-2019 20:33  

Отключить всю рекламу на сайте

    Дорогой пользователь! Огромная просьба, поблагодарите релизера, оцените раздачу и оставьте свои комментарий, если Вы скачали Жёлтый дом через торрент бесплатно! Внесите свою лепту в развитие PiratBit!
    Комментировать посты могут только пользователи прошедшие не сложную регистрацию
    Показать сообщения:    

    Жёлтый дом через торрент
    Скачать бесплатно Жёлтый дом
    Жёлтый дом скачать торрент
    Жёлтый дом смотреть онлайн
    Cкачать фильм Жёлтый дом бесплатно
    Жёлтый дом скачать торрент в хорошем качестве
    Жёлтый дом смотреть онлайн бесплатно в хорошем качестве


    Вы не можете начинать темы
    Вы не можете отвечать на сообщения
    Вы не можете редактировать свои сообщения
    Вы не можете удалять свои сообщения
    Вы не можете голосовать в опросах
    Вы не можете прикреплять файлы к сообщениям
    Вы можете скачивать файлы