2 сезон

iTunes

MVO

1

2 сезон

iTunes

iTunes

1 сезон

RePack

30

Новинка

ВАЖНО

ИГРА 18+

pack

RePack

MK11
pack

Легкие деньги

RePack

jed

RePack

fifa19

RePack

RDR2

RePack

NEED FOR SPEED™ PAYBACK

4 сезон

9 сезон

Бесстыжие 9 сезон

Все сериалы

все сериалы на PB.wtf

RePack

FAR CRY 5

Anonymous, добрый вечер, мы не успеваем собрать деньги на оплату серверов за декабрь и январь, помогите нам пожалуйста в это трудное время. В качестве благодарности мы отключим Вам всю рекламу на сайте (укажите свой ник в строку Ваше имя)!

×
  
Magnet ссылка

Время смерти / Time of Death (Фредерик Д'Амур) / Сезон: 1 / Серии: 1-6 из 6 [2013 г., Документальный, HDTVRip, Профессиональный (двухголосый)] от R.G.Resident piratbit.org

Скачать  

09-02-2017 08:29 Время смерти Скачать торрент  

Время смерти / Time of Death
Год выпуска: 2013
Страна: США, Magical Elves Productions
Жанр: Документальный
Продолжительность: 6 х ~ 00:55:00
Перевод: Профессиональный (двухголосый) SDI Media
Режиссер: Фредерик Д'Амур

rating

В ролях: Кэтлин Робертсон, Джанпаоло Пришла, Сара Пауэр

Описание: Идеальные примеры того, как прожить последние недели, дни и мгновения. Смелый документальный проект покажет восемь семей, в каждой из которых близкий человек неизлечимо болен. Смерть неумолимо приближается, но благодаря поддержке семьи, друзей и преданных своему делу медработников эти сильные люди не впадают в уныние. Своим примером они доказывают, что уходить можно с улыбкой на лице. Эта новаторская и глубокая картина призвана напомнить всем нам о том, что мы не бессмертны, а смерть придает бесценную стоимость каждой секунде жизни.

Качество: HDTVRip
Формат: AVI
Видео кодек: XviD
Аудио кодек: AC3
Видео: 720x400 (1.80:1), 25 fps, XviD build 65 ~1323 kbps avg, 0.18 bit/pixel
Аудио#1: 48 kHz, AC3 Dolby Digital, 2/0 (L,R) ch, ~192.00 kbps avg
Релиз от: ruslanishe

General
Vremya.smerti.XviD.2013.HDTVRip.R.G.Resident\001.avi
Format : AVI
Format/Info : Audio Video Interleave
File size : 550 MiB
Duration : 50mn 27s
Overall bit rate : 1 525 Kbps
Director : ruslanishe
Writing application : VirtualDubMod 1.5.10.3 | www.virtualdub-fr.org || (build 2550/release)
Copyright : R.G.Resident

Video
ID : 0
Format : MPEG-4 Visual
Format profile : Advanced Simple@L5
Format settings, BVOP : 2
Format settings, QPel : No
Format settings, GMC : No warppoints
Format settings, Matrix : Custom
Codec ID : XVID
Codec ID/Hint : XviD
Duration : 50mn 27s
Bit rate : 1 323 Kbps
Width : 720 pixels
Height : 400 pixels
Display aspect ratio : 16:9
Frame rate : 25.000 fps
Color space : YUV
Chroma subsampling : 4:2:0
Bit depth : 8 bits
Scan type : Progressive
Compression mode : Lossy
Bits/(Pixel*Frame) : 0.184
Stream size : 477 MiB (87%)
Writing library : XviD 65

Audio
ID : 1
Format : AC-3
Format/Info : Audio Coding 3
Mode extension : CM (complete main)
Format settings, Endianness : Big
Codec ID : 2000
Duration : 50mn 27s
Bit rate mode : Constant
Bit rate : 192 Kbps
Channel(s) : 2 channels
Channel positions : Front: L R
Sampling rate : 48.0 KHz
Bit depth : 16 bits
Compression mode : Lossy
Stream size : 69.3 MiB (13%)
Alignment : Split accross interleaves
Interleave, duration : 40 ms (1.00 video frame)
Interleave, preload duration : 500 ms

piratbit.org



Скачать
Чтобы иметь возможность скачивать с Торрент Трекера, нужно Зарегистрироваться

Как скачивать  ·  Рейтинг и ограничения

28-11-2019 20:33  

Отключить всю рекламу на сайте


    Дорогой пользователь! Огромная просьба, поблагодарите релизера, оцените раздачу и оставьте свои комментарий, если Вы скачали Время смерти через торрент бесплатно! Внесите свою лепту в развитие PiratBit!
    Комментировать посты могут только пользователи прошедшие не сложную регистрацию
    Показать сообщения:    

    Время смерти через торрент
    Скачать бесплатно Время смерти
    Время смерти скачать торрент
    Время смерти смотреть онлайн
    Cкачать фильм Время смерти бесплатно
    Время смерти скачать торрент в хорошем качестве
    Время смерти смотреть онлайн бесплатно в хорошем качестве


    Вы не можете начинать темы
    Вы не можете отвечать на сообщения
    Вы не можете редактировать свои сообщения
    Вы не можете удалять свои сообщения
    Вы не можете голосовать в опросах
    Вы не можете прикреплять файлы к сообщениям
    Вы не можете скачивать файлы