Доктор Стрэндж

Лицензия

Добыча

MVO

Дом дракона

1 сезон

Тор

Лицензия

Мэверик

Лицензия

Там, где раки поют

MVO

Властелин колец

1 сезон

Ultimate

pack

Рекомендуем

30

Repack

ВАЖНО

ВАЖНО

Ghostwire

RePack

jed

RePack

nioh2

RePack

RDR2

RePack

NEED FOR SPEED™ PAYBACK

RePack

скачать торрент

Кинопоиск HD

Острые козырьки 6 сезон

6 сезон

FAR CRY 6

RePack

скачать торрент

Лицензия

скачать торрент

MVO

1

1 сезон

скачать торрент

1 сезон

скачать торрент

Лицензия

  

Высота (Александр Зархи) [1957, СССР, драма, мелодрама, DVDRip от AVP Studio]

Высота через торрент piratbit.org

Размер: 745 MB | Добавлен: 5 лет 7 мес. назад | Торрент скачан:19 раз
Смотреть онлайн | Скачать   

10-02-2017 09:15 Высота Скачать торрент  

Высота
Страна: СССР
Производство: Мосфильм

Жанр: драма, мелодрама
Год выпуска: 1957
Продолжительность: 01:28:09

Перевод: Не требуется
Cубтитры: нет
Оригинальная аудиодорожка: русский

Режиссер: Александр Зархи

В ролях:
Николай Рыбников, Инна Макарова, Геннадий Карнович-Валуа, Марианна Стриженова, Василий Макаров, Борис Ситко, Сергей Ромоданов, Елена Максимова, Лев Борисов, Леонид Чубаров, Хорен Абрамян, Владимир Поболь, Валентин Печников, Евгений Зиновьев, Михаил Воробьёв...
Об актёрах подробней

Описание:
На строительство комбината приезжает бригада монтажников-верхолазов, им предстоит осуществить монтаж домны по новому методу. Кое-кто с перепугу уезжает в командировку, а в целом предложение принято и верхолазы приступают к работе.
Фильм о непростых характерах простых советских людей, умеющих трудиться, мечтать, любить — строить большое человеческое счастье.

Источник: DVD9 R5
Качество видео: DVDRip
Формат видео: AVI

Видео: 640x480 (4:3), 25 fps, XviD ~ 1044 kbps avg, 0.136 bit/pixel
Аудио: 48 kHz, MP3 2.0, 128 kbps

Раздача от:
Шутливая, задорная песенка Родиона Щедрина «Не кочегары мы, не плотники» стала визитной карточкой фильма и одним из шлягеров конца пятидесятых.

В песне, как и в общем строе картины, отразилось мироощущение эпохи оттепели — времени надежд, оптимизма и уверенности в том, что страна идет по правильной дороге. Картина рассказывала о радости труда, о необходимой борьбе с карьеризмом и безответственностью, о творческих потенциях личности и о трудной, но обязательно счастливой любви. Сам материал — строительство металлургического комбината, работа монтажников-верхолазов — выглядит в фильме вполне киногенично. Простые люди оказываются значительными благодаря точному выбору исполнителей, их самобытности и мастерству. Инна Макарова в роли Кати создала характер яркий, личность незаурядную. Ее героине предстоит победить вульгарность, перестать быть просто сорванцом, бросить пить и курить, как того требовал один из основных сюжетов советского кино. Актриса выполнила задачу с блеском, что позволило автору романа Е. Воробьеву признать ее своим соавтором. Николай Рыбников , уже полюбившийся зрителям по фильмам «Весна на Заречной улице» и «Чужая родня», нашел новые краски в обрисовке образа современника: юмористическое и романтическое в его исполнении встретились и взаимно обогатили друг друга. Николай Пасечник способен творить чудеса — вызвать молнию, он способен изумиться, увидев латиноамериканский туалет любимой. Встреча двух людей отважной профессии заставляет их по-новому взглянуть на себя: Пасечнику, избалованному почетом и уважением, легкими победами на любовном фронте — узнать сопротивление другого, Кате — переломить себя ради счастья в любви. Все это происходит на фоне перипетий строительства, где талантливый прораб Токмаков (Геннадий Карнович-Валуа) пытается внедрить новые идеи, а начальник монтажного управления Дерябин (Василий Макаров) боится рисковать. И конечно именно Пасечнику выпадает честь доказать правоту друга-прораба и совершить подвиг. И конечно, он еще хочет проявить инициативу — водрузить на построенной домне флаг, чуточку позируя перед любимой девушкой. А потом - падение с высоты и тяжелые травмы. Встреча в больнице разрешает все проблемы. Героев связывает не только работа и любовь, но и воспоминания о детстве.

Все натурные съемки проводились в Днепродзержинске.
Общее
Полное имя : Vysota.1957.DVDRip-745_[New-team]_by_AVP_Studio.avi
Формат : AVI
Формат/Информация : Audio Video Interleave
Размер файла : 745 Мбайт
Продолжительность : 1 ч. 28 м.
Общий поток : 1181 Кбит/сек
Программа кодирования : VirtualDubMod 1.5.10.3 | www.virtualdub-fr.org || (build 2550/release)
Библиотека кодирования : VirtualDubMod build 2550/release

Видео
Идентификатор : 0
Формат : MPEG-4 Visual
Профиль формата : Advanced Simple@L5
Параметр BVOP формата : 1
Параметр QPel формата : Нет
Параметр GMC формата : Без точки перехода
Параметр матрицы формата : Выборочная
Идентификатор кодека : XVID
Идентификатор кодека/Подсказка : XviD
Продолжительность : 1 ч. 28 м.
Битрейт : 1044 Кбит/сек
Ширина : 640 пикселей
Высота : 480 пикселей
Соотношение сторон : 4:3
Частота кадров : 25,000 кадров/сек
Цветовое пространство : YUV
Субдискретизация насыщенности : 4:2:0
Битовая глубина : 8 бит
Тип развёртки : Прогрессивная
Метод сжатия : С потерями
Бит/(Пиксели*Кадры) : 0.136
Размер потока : 658 Мбайт (88%)
Библиотека кодирования : XviD 73

Аудио
Идентификатор : 1
Формат : MPEG Audio
Версия формата : Version 1
Профиль формата : Layer 3
Идентификатор кодека : 55
Идентификатор кодека/Подсказка : MP3
Продолжительность : 1 ч. 28 м.
Вид битрейта : Постоянный
Битрейт : 128 Кбит/сек
Каналы : 2 канала
Частота : 48,0 КГц
Метод сжатия : С потерями
Размер потока : 80,7 Мбайт (11%)
Выравнивание : Соединение по промежуткам
Продолжительность промежутка : 40 мс. (1,00 видеокадр)
Время предзагрузки промежутка : 504 мс.
Библиотека кодирования : LAME3.99r
Настройки программы : -m s -V 4 -q 2 -lowpass 17 -b 128



Скачать Высота через торрент http://s019.radikal.ru/i601/1702/de/595fe3e0034d.png Скачать, смотреть онлайн Высота бесплантно в хорошем качестве Описание:На строительство комбината приезжает бригада монтажников-верхолазов, им предстоит осуществить монтаж домны по новому методу. ... 5 10 1
Info! Золотая раздача, скачанное не засчитывается.
Торрент: Зарегистрирован [2017-02-10 09:15] · скачан: 19 раз
Статус: √ проверено
Размер: 745 MB
Как cкачать? Как скачать Высота через торрент | UTorrent

% Раздел Тема Автор DL S | L
Кино СССР [ 1.46 GB ] Высота | | DVDRip-AVC от AVP Studio AVP Studio Скачать
1 | 0
Кино СССР [ 1.46 GB ] Высота | | DVDRip от AVP Studio AVP Studio Скачать
1 | 0
Кино СССР [ 1.37 GB ] Высота | | DVDRip шурка Скачать
1 | 0

28-11-2019 20:33  


Отключить вcю реклaмy на сайте, в т.ч. и в плеере онлайн просмотра!

    Дорогой пользователь! Огромная просьба, поблагодарите релизера, оцените раздачу и оставьте свои комментарий, если Вы скачали Высота через торрент бесплатно!!
    Комментировать посты могут только пользователи прошедшие не сложную регистрацию
    Показать сообщения:    


    Высота через торрент
    Скачать бесплатно Высота
    Высота скачать торрент
    Высота смотреть онлайн
    Cкачать фильм Высота бесплатно
    Высота скачать торрент в хорошем качестве
    Высота смотреть онлайн бесплатно в хорошем качестве
    Вы не можете начинать темы
    Вы не можете отвечать на сообщения
    Вы не можете редактировать свои сообщения
    Вы не можете удалять свои сообщения
    Вы не можете голосовать в опросах
    Вы не можете прикреплять файлы к сообщениям
    Вы можете скачивать файлы