1 сезон

3 сезон

iTunes

1

iTunes

DUB Netflix

iTunes

13

1 сезон

RePack

30

Deluxe

pack

Легкие деньги

ВАЖНО

ИГРА 18+

pack

RePack

MK11

RePack

jed

RePack

fifa19

RePack

RDR2

RePack

NEED FOR SPEED™ PAYBACK

4 сезон

9 сезон

Бесстыжие 9 сезон

Все сериалы

все сериалы на PB.wtf

RePack

FAR CRY 5

Anonymous, добрый день, мы не успеваем до 1 числа собрать деньги на оплату серверов, помогите нам пожалуйста в это трудное время. В качестве благодарности мы отключим Вам всю рекламу на сайте (укажите свой ник в строку Ваше имя)!

×
  
Magnet ссылка

Уиджи. Проклятие доски дьявола / Ouija: Origin of Evil (Майк Флэнеган ) [2016, ужасы, триллер, BDRip-AVC] Дубляж - [Лицензия] От ExKinoRay piratbit.org

Уиджи. Проклятие доски дьявола через торрент piratbit.org

Размер: 1.93 GB | Добавлен: 4 года 4 мес. назад | Торрент скачан:192 раза
Скачать  

11-02-2017 22:30 Уиджи. Проклятие доски дьявола Скачать торрент  

Уиджи. Проклятие доски дьявола / Ouija: Origin of Evil

Год выпуска: 2016
Страна: Япония, США
Жанр: ужасы, триллер

Продолжительность: 01:38:54
Перевод: Дубляж - [Лицензия]
Субтитры: Русские (forced,full) английские
Режиссер: Майк Флэнеган
В ролях: Анналиса Бассо (Lina Zander), Элизабет Ризер (Alice Zander), Лулу Уилсон (Doris Zander), Генри Томас (Father Tom Hogan), Паркер Мак (Mikey), Холли Чарлтон (Ellie), Алексис Дж. Залл (Betty), Даг Джонс (Ghoul Marcus), Кейт Сигел (Jenny Browning), Сэм Андерсон (Mr. Browning), Челси Гонзалез (Gloria), Линкольн Мелчер (Jack)
Описание:
Спиритическая доска Уиджи никогда не была просто игрой. Она служила порталом в мир мертвых. Столетиями она служила вратами между миром живых и царством мертвых. Но однажды духи выйдут из-под контроля, и первородное зло овладеет душой ребенка...
Рейтинг:

MPAA: PG-13 - Детям до 13 лет просмотр не желателен
Rip by
Качество: BDRip-AVC
Формат: MKV
Видео: AVC, 1024x552 (1.85:1), 1890 kbps, 23,976 fps, 0,139 bpp
Аудио №1: русский / AC3 / 5.1 / 48 kHz / 448 kbps /
Аудио №2: английский / AC3 / 5.1 / 48 kHz / 448 kbps /
Навигация по главам: есть
General
Unique ID : 219015759329261428613568511299664807885 (0xA4C4E6A29828F44486A64B58E64507CD)
Complete name : E:\Ouija.Origin.of.Evil.2016.BDRip.AVC.ExKinoRay.mkv
Format : Matroska
Format version : Version 2
File size : 1.93 GiB
Duration : 1 h 38 min
Overall bit rate : 2 788 kb/s
Movie name : Ouija Origin of Evil 2016 from ExKinoRay
Encoded date : UTC 2017-02-10 22:26:44
Writing application : mkvmerge v7.6.0 ('Garden of Dreams') 32bit built on Feb 11 2015 00:18:47
Writing library : libebml v1.3.1 + libmatroska v1.4.2

Video
ID : 1
Format : AVC
Format/Info : Advanced Video Codec
Format profile : High@L4.1
Format settings, CABAC : Yes
Format settings, ReFrames : 11 frames
Codec ID : V_MPEG4/ISO/AVC
Duration : 1 h 38 min
Bit rate : 1 890 kb/s
Width : 1 024 pixels
Height : 552 pixels
Display aspect ratio : 1.85:1
Frame rate mode : Constant
Frame rate : 23.976 (24000/1001) FPS
Color space : YUV
Chroma subsampling : 4:2:0
Bit depth : 8 bits
Scan type : Progressive
Bits/(Pixel*Frame) : 0.139
Stream size : 1.27 GiB (66%)
Title : Enigma
Writing library : x264 core 144 r2525 40bb568
Encoding settings : cabac=1 / ref=11 / deblock=1:-2:-2 / analyse=0x3:0x113 / me=umh / subme=10 / psy=1 / psy_rd=1.00:0.03 / mixed_ref=1 / me_range=32 / chroma_me=1 / trellis=2 / 8x8dct=1 / cqm=0 / deadzone=21,11 / fast_pskip=1 / chroma_qp_offset=-3 / threads=12 / lookahead_threads=3 / sliced_threads=0 / nr=0 / decimate=1 / interlaced=0 / bluray_compat=0 / constrained_intra=0 / bframes=11 / b_pyramid=2 / b_adapt=2 / b_bias=0 / direct=3 / weightb=1 / open_gop=0 / weightp=2 / keyint=240 / keyint_min=23 / scenecut=40 / intra_refresh=0 / rc_lookahead=40 / rc=2pass / mbtree=0 / bitrate=1890 / ratetol=1.0 / qcomp=0.62 / qpmin=0 / qpmax=51 / qpstep=4 / cplxblur=20.0 / qblur=0.5 / vbv_maxrate=50000 / vbv_bufsize=62500 / nal_hrd=none / filler=0 / ip_ratio=1.40 / pb_ratio=1.30 / aq=1:1.00
Language : English
Default : Yes
Forced : No
Color range : Limited
Color primaries : BT.709
Transfer characteristics : BT.709
Matrix coefficients : BT.709

Audio #1
ID : 2
Format : AC-3
Format/Info : Audio Coding 3
Mode extension : CM (complete main)
Format settings, Endianness : Big
Codec ID : A_AC3
Duration : 1 h 38 min
Bit rate mode : Constant
Bit rate : 448 kb/s
Channel(s) : 6 channels
Channel positions : Front: L C R, Side: L R, LFE
Sampling rate : 48.0 kHz
Frame rate : 31.250 FPS (1536 spf)
Compression mode : Lossy
Stream size : 317 MiB (16%)
Title : Dub (BD CEE)
Language : Russian
Default : Yes
Forced : No

Audio #2
ID : 3
Format : AC-3
Format/Info : Audio Coding 3
Mode extension : CM (complete main)
Format settings, Endianness : Big
Codec ID : A_AC3
Duration : 1 h 38 min
Bit rate mode : Constant
Bit rate : 448 kb/s
Channel(s) : 6 channels
Channel positions : Front: L C R, Side: L R, LFE
Sampling rate : 48.0 kHz
Frame rate : 31.250 FPS (1536 spf)
Compression mode : Lossy
Stream size : 317 MiB (16%)
Language : English
Default : No
Forced : No

Text #1
ID : 4
Format : UTF-8
Codec ID : S_TEXT/UTF8
Codec ID/Info : UTF-8 Plain Text
Title : Forced
Language : Russian
Default : Yes
Forced : No

Text #2
ID : 5
Format : UTF-8
Codec ID : S_TEXT/UTF8
Codec ID/Info : UTF-8 Plain Text
Title : Blu-ray CEE
Language : Russian
Default : No
Forced : No

Text #3
ID : 6
Format : UTF-8
Codec ID : S_TEXT/UTF8
Codec ID/Info : UTF-8 Plain Text
Title : Full
Language : English
Default : No
Forced : No

Menu
00:00:00.000 : en:00:00:00.000
00:05:30.747 : en:00:05:30.747
00:09:12.469 : en:00:09:12.469
00:14:19.525 : en:00:14:19.525
00:21:37.880 : en:00:21:37.880
00:25:24.314 : en:00:25:24.314
00:30:09.850 : en:00:30:09.850
00:35:53.318 : en:00:35:53.318
00:39:04.384 : en:00:39:04.384
00:43:53.464 : en:00:43:53.464
00:48:49.677 : en:00:48:49.677
00:55:11.683 : en:00:55:11.683
00:58:47.607 : en:00:58:47.607
01:05:27.715 : en:01:05:27.715
01:10:46.284 : en:01:10:46.284
01:14:26.420 : en:01:14:26.420
01:18:25.075 : en:01:18:25.075
01:21:48.403 : en:01:21:48.403
01:27:42.841 : en:01:27:42.841
01:31:03.291 : en:01:31:03.291
piratbit.org



Скачать Уиджи. Проклятие доски дьявола через торрент http://i3.imageban.ru/out/2017/02/11/d7643e847e79fc2f98a183a846cd8844.jpg Скачать фильм Уиджи. Проклятие доски дьявола через торрент бесплантно в хорошем качестве Описание: Спиритическая доска Уиджи никогда не была просто игрой. Она служила порталом в мир мертвых. Столетиями она служила вратами между ... 8.8 10 8
Info! Золотая раздача, скачанное не засчитывается.
Торрент: Зарегистрирован [2017-02-11 22:30] · скачан: 192 раз
Статус: √ проверено
Размер: 1.93 GB
Как cкачать? Как скачать Уиджи. Проклятие доски дьявола через торрент | UTorrent

28-11-2019 20:33  

Отключить всю рекламу на сайте


    Дорогой пользователь! Огромная просьба, поблагодарите релизера, оцените раздачу и оставьте свои комментарий, если Вы скачали Уиджи. Проклятие доски дьявола через торрент бесплатно! Внесите свою лепту в развитие PiratBit!
    Комментировать посты могут только пользователи прошедшие не сложную регистрацию
    Показать сообщения:    

    Уиджи. Проклятие доски дьявола через торрент
    Скачать бесплатно Уиджи. Проклятие доски дьявола
    Уиджи. Проклятие доски дьявола скачать торрент
    Уиджи. Проклятие доски дьявола смотреть онлайн
    Cкачать фильм Уиджи. Проклятие доски дьявола бесплатно
    Уиджи. Проклятие доски дьявола скачать торрент в хорошем качестве
    Уиджи. Проклятие доски дьявола смотреть онлайн бесплатно в хорошем качестве


    Вы не можете начинать темы
    Вы не можете отвечать на сообщения
    Вы не можете редактировать свои сообщения
    Вы не можете удалять свои сообщения
    Вы не можете голосовать в опросах
    Вы не можете прикреплять файлы к сообщениям
    Вы можете скачивать файлы