Доктор Стрэндж

Лицензия

Добыча

MVO

Дом дракона

1 сезон

Тор

Лицензия

Мэверик

Лицензия

Там, где раки поют

MVO

Властелин колец

1 сезон

Ultimate

pack

Рекомендуем

30

Repack

ВАЖНО

ВАЖНО

Ghostwire

RePack

jed

RePack

nioh2

RePack

RDR2

RePack

NEED FOR SPEED™ PAYBACK

RePack

скачать торрент

Кинопоиск HD

Острые козырьки 6 сезон

6 сезон

FAR CRY 6

RePack

скачать торрент

Лицензия

скачать торрент

MVO

1

1 сезон

скачать торрент

1 сезон

скачать торрент

Лицензия

  

Отарова вдова (Михаил Чиаурели) [1957, СССР, драма, WEB-DLRip-AVC от AVP Studio]

Отарова вдова через торрент piratbit.org

Размер: 1.46 GB | Добавлен: 5 лет 7 мес. назад | Торрент скачан:9 раз
Смотреть онлайн Отарова вдова | Скачать   

12-02-2017 09:25 Отарова вдова Скачать торрент  

Отарова вдова
Страна: СССР
Производство: Грузия-фильм

Жанр: драма
Год выпуска: 1957
Продолжительность: 01:09:19

Перевод: Не требуется
Cубтитры: нет
Оригинальная аудиодорожка: русский

Режиссер: Михаил Чиаурели

В ролях:
Верико Анджапаридзе, Георгий Шенгелая, Борис Андроникашвили, Динара Жоржолиани, Коте (Константин) Даушвили, Ираклий Нижарадзе, Мария (Мэри) Давиташвили, Александр Гомелаури, Александр Загорский, Вахтанг Нинуа, Акакий (Како) Кванталиани, Бадри Кобахидзе, Александр Омиадзе, Михаил Мгеладзе, Ирина Магалашвили...
Полный список актёров

Описание:
По одноименной повести И. Чавчавадзе.
Сын Отаровой вдовы крестьянин Георгий влюбился в княжну Кесо. Чтобы быть ближе к любимой он нанимается батраком в ее поместье. Однако та его даже не замечает, хотя и мечтает «сблизиться» с народом.

Источник: WEB-DL 720p
Качество видео: WEB-DLRip-AVC
Формат видео: MKV

Видео: 1024x576 (16:9), 29,970 fps, H264 ~ 2819 kbps avg, 0.159 bit/pixel
Аудио: 48 kHz, Dolby Digital AC3 2.0, 192 kbps

Раздача от:
Общее
Полное имя : Otarova.vdova.1957.WEB-DLRip-AVC_[New-team]_by_AVP_Studio.mkv
Формат : Matroska
Версия формата : Version 2
Размер файла : 1,46 Гбайт
Продолжительность : 1 ч. 9 м.
Общий поток : 3013 Кбит/сек
Дата кодирования : UTC 2017-02-11 14:27:47
Программа кодирования : mkvmerge v6.1.0 ('Old Devil') built on Mar 4 2013 09:10:42
Библиотека кодирования : libebml v1.3.0 + libmatroska v1.4.0

Видео
Идентификатор : 1
Формат : AVC
Формат/Информация : Advanced Video Codec
Профиль формата : High@L4.1
Параметр CABAC формата : Да
Параметр ReFrames формата : 10 кадров
Идентификатор кодека : V_MPEG4/ISO/AVC
Продолжительность : 1 ч. 9 м.
Битрейт : 2819 Кбит/сек
Ширина : 1024 пикселя
Высота : 576 пикселей
Соотношение сторон : 16:9
Режим частоты кадров : Постоянный
Частота кадров : 29,970 (30000/1001) кадров/сек
Цветовое пространство : YUV
Субдискретизация насыщенности : 4:2:0
Битовая глубина : 8 бит
Тип развёртки : Прогрессивная
Бит/(Пиксели*Кадры) : 0.159
Размер потока : 1,34 Гбайт (92%)
Библиотека кодирования : x264 core 148 r2597 e86f3a1
Настройки программы : cabac=1 / ref=10 / deblock=1:-3:-2 / analyse=0x3:0x113 / me=umh / subme=10 / psy=1 / psy_rd=1.00:0.00 / mixed_ref=1 / me_range=32 / chroma_me=1 / trellis=2 / 8x8dct=1 / cqm=0 / deadzone=21,11 / fast_pskip=1 / chroma_qp_offset=-2 / threads=6 / lookahead_threads=1 / sliced_threads=0 / nr=0 / decimate=0 / interlaced=0 / bluray_compat=0 / constrained_intra=0 / bframes=8 / b_pyramid=2 / b_adapt=2 / b_bias=0 / direct=3 / weightb=1 / open_gop=0 / weightp=2 / keyint=250 / keyint_min=25 / scenecut=40 / intra_refresh=0 / rc_lookahead=40 / rc=2pass / mbtree=1 / bitrate=2819 / ratetol=1.0 / qcomp=0.60 / qpmin=0 / qpmax=69 / qpstep=4 / cplxblur=20.0 / qblur=0.5 / ip_ratio=1.40 / aq=1:1.00
Default : Да
Forced : Нет

Аудио
Идентификатор : 2
Формат : AC-3
Формат/Информация : Audio Coding 3
Расширение режима : CM (complete main)
Параметр Endianness формата : Big
Идентификатор кодека : A_AC3
Продолжительность : 1 ч. 9 м.
Вид битрейта : Постоянный
Битрейт : 192 Кбит/сек
Каналы : 2 канала
Расположение каналов : Front: L R
Частота : 48,0 КГц
Частота кадров : 31,250 кадров/сек (1536 spf)
Битовая глубина : 16 бит
Метод сжатия : С потерями
Размер потока : 95,2 Мбайт (6%)
Default : Да
Forced : Нет



Скачать Отарова вдова через торрент http://s06.radikal.ru/i179/1702/73/f378281a6dac.png Скачать, смотреть онлайн Отарова вдова бесплантно в хорошем качестве Описание:По одноименной повести И. Чавчавадзе.Сын Отаровой вдовы крестьянин Георгий влюбился в княжну Кесо. Чтобы быть ближе к любимой он ... 10 10 2
Info! Золотая раздача, скачанное не засчитывается.
Торрент: Зарегистрирован [2017-02-12 09:25] · скачан: 9 раз
Статус: √ проверено
Размер: 1.46 GB
Как cкачать? Как скачать Отарова вдова через торрент | UTorrent

% Раздел Тема Автор DL S | L
Кино СССР [ 745 MB ] Отарова вдова | | DLRip от AVP Studio AVP Studio Скачать
1 | 0

28-11-2019 20:33  

Отключить вcю реклaмy на сайте

    Дорогой пользователь! Огромная просьба, поблагодарите релизера, оцените раздачу и оставьте свои комментарий, если Вы скачали Отарова вдова через торрент бесплатно!!
    Комментировать посты могут только пользователи прошедшие не сложную регистрацию
    Показать сообщения:    


    Отарова вдова через торрент
    Скачать бесплатно Отарова вдова
    Отарова вдова скачать торрент
    Отарова вдова смотреть онлайн
    Cкачать фильм Отарова вдова бесплатно
    Отарова вдова скачать торрент в хорошем качестве
    Отарова вдова смотреть онлайн бесплатно в хорошем качестве
    Вы не можете начинать темы
    Вы не можете отвечать на сообщения
    Вы не можете редактировать свои сообщения
    Вы не можете удалять свои сообщения
    Вы не можете голосовать в опросах
    Вы не можете прикреплять файлы к сообщениям
    Вы можете скачивать файлы