1 сезон

3 сезон

iTunes

1

iTunes

DUB Netflix

iTunes

13

1 сезон

RePack

30

Deluxe

pack

Легкие деньги

ВАЖНО

ИГРА 18+

pack

RePack

MK11

RePack

jed

RePack

fifa19

RePack

RDR2

RePack

NEED FOR SPEED™ PAYBACK

4 сезон

9 сезон

Бесстыжие 9 сезон

Все сериалы

все сериалы на PB.wtf

RePack

FAR CRY 5

Anonymous, добрый день, мы не успеваем до 1 числа собрать деньги на оплату серверов, помогите нам пожалуйста в это трудное время. В качестве благодарности мы отключим Вам всю рекламу на сайте (укажите свой ник в строку Ваше имя)!

×
  
Magnet ссылка

Сладкая парочка / Buddymoon (Алекс Симмонс) [2016 г., комедия, WEB-DLRip, Профессиональный (многоголосый)] piratbit.org

Сладкая парочка через торрент piratbit.org

Размер: 1.37 GB | Добавлен: 4 года 4 мес. назад | Торрент скачан:358 раз
Скачать  

13-02-2017 04:15 Сладкая парочка Скачать торрент  

Сладкая парочка / Buddymoon
Год выпуска: 2016
Страна: США
Жанр: комедия
Продолжительность: 01:18:44
Перевод: Профессиональный (многоголосый)[Официальный]
Субтитры: нет

Режиссер: Алекс Симмонс

Премьера в мире: 23 января 2016

rating

В ролях: Дэвид Джинтоли, Флула Борг, Клэр Коффи, Брайан Финни

Описание: Когда Дэвида бросает невеста всего лишь за несколько дней до свадьбы, его оптимистичный лучший друг Флула убеждает его поехать в ранее запланированный медовый месяц: семидневный поход в горах штата Орегон. На пути им встречается галлюцинирующий теоретик всемирного заговора, поклонница туризма и кровожадный хищник. Безжалостное путешествие проверит на прочность их дружбу и их жизни.

Доп. информация: Релиз без рекламы

Качество: WEB-DLRip
Формат: AVI
Видео кодек: XviD
Аудио кодек: AC3
Видео: XviD, 720х304, 2 032 Kbps,23.976 fps
Аудио: AC3, 448 kbрs, 2 ch,48.0 KHz




General
Complete name : H:\релизы.торрентфайл\Buddymoon.2O16.P.WEB-DLRip.avi
Format : AVI
Format/Info : Audio Video Interleave
File size : 1.37 GiB
Duration : 1h 18mn
Overall bit rate : 2 489 Kbps
Writing application : VirtualDubMod 1.5.10.3 | www.virtualdub-fr.org || (build 2550/release)
Writing library : VirtualDubMod build 2550/release

Video
ID : 0
Format : MPEG-4 Visual
Format profile : Advanced Simple@L5
Format settings, BVOP : 2
Format settings, QPel : No
Format settings, GMC : No warppoints
Format settings, Matrix : Default (MPEG)
Codec ID : XVID
Codec ID/Hint : XviD
Duration : 1h 18mn
Bit rate : 2 032 Kbps
Width : 720 pixels
Height : 304 pixels
Display aspect ratio : 2.35:1
Frame rate : 23.976 fps
Color space : YUV
Chroma subsampling : 4:2:0
Bit depth : 8 bits
Scan type : Progressive
Compression mode : Lossy
Bits/(Pixel*Frame) : 0.387
Stream size : 1.12 GiB (82%)
Writing library : XviD 1.2.1 (UTC 2008-12-04)

Audio
ID : 1
Format : AC-3
Format/Info : Audio Coding 3
Mode extension : CM (complete main)
Format settings, Endianness : Big
Codec ID : 2000
Duration : 1h 18mn
Bit rate mode : Constant
Bit rate : 448 Kbps
Channel(s) : 2 channels
Channel positions : Front: L R
Sampling rate : 48.0 KHz
Bit depth : 16 bits
Compression mode : Lossy
Stream size : 252 MiB (18%)
Alignment : Split accross interleaves
Interleave, duration : 42 ms (1.00 video frame)
Interleave, preload duration : 500 ms

piratbit.org



Скачать Сладкая парочка через торрент https://pic1.kartinco.top/images/11/151rn.jpg Скачать фильм Сладкая парочка через торрент бесплантно в хорошем качестве Описание: Когда Дэвида бросает невеста всего лишь за несколько дней до свадьбы, его оптимистичный лучший друг Флула убеждает его поехать в ... 10 10 6
Торрент: Зарегистрирован [2017-02-13 04:15] · скачан: 358 раз
Статус: T временная
Размер: 1.37 GB
Как cкачать? Как скачать Сладкая парочка через торрент | UTorrent

28-11-2019 20:33  

Отключить всю рекламу на сайте

13-02-2017 14:37 Сладкая парочка Скачать торрент  

скачан 73 раза, и ни кто не отписался. наверно не нуждается в комент.
спасибо за раздачуpiratbit.org



13-02-2017 21:04 Сладкая парочка Скачать торрент  

это что кличко в роли банана?piratbit.org



14-02-2017 16:31 Сладкая парочка Скачать торрент  

mrAmerica писал(а):

это что кличко в роли банана?

ахахахаахахха, и правда похож))))))))))))))))))piratbit.org



    Дорогой пользователь! Огромная просьба, поблагодарите релизера, оцените раздачу и оставьте свои комментарий, если Вы скачали Сладкая парочка через торрент бесплатно! Внесите свою лепту в развитие PiratBit!
    Комментировать посты могут только пользователи прошедшие не сложную регистрацию
    Показать сообщения:    

    Сладкая парочка через торрент
    Скачать бесплатно Сладкая парочка
    Сладкая парочка скачать торрент
    Сладкая парочка смотреть онлайн
    Cкачать фильм Сладкая парочка бесплатно
    Сладкая парочка скачать торрент в хорошем качестве
    Сладкая парочка смотреть онлайн бесплатно в хорошем качестве


    Вы не можете начинать темы
    Вы не можете отвечать на сообщения
    Вы не можете редактировать свои сообщения
    Вы не можете удалять свои сообщения
    Вы не можете голосовать в опросах
    Вы не можете прикреплять файлы к сообщениям
    Вы можете скачивать файлы