Ссылка на приватное зеркало нашего сайта всего за 1$. Внимание количество ограничено!!!

2 сезон

iTunes

iTunes

1

iTunes

iTunes

iTunes

WEBRip

iTunes

30
pack

Забери бонус

ВАЖНО

!!Акция!!

Alien_RageХит недели

RePack

RESIDENT EVIL 3: NEMESIS REMAKE

ИГРА 18+

pack

RePack

jed

!!Акция!!

Alien_Rage

RePack

fifa19

RePack

Assassins Creed: Odyssey

RePack

NEED FOR SPEED™ PAYBACK

4 сезон

9 сезон

Бесстыжие 9 сезон

Все сериалы

все сериалы на PB.wtf

RePack

FAR CRY 5
  

Тринадцатый этаж / Botched (Кит Райан) [2007 г., чёрная комедия, криминал, ужасы, WEB-DLRip, Профессиональный (многоголосый закадровый) R5] piratbit.org

Тринадцатый этаж через торрент piratbit.org

Размер: 1.71 GB | Добавлен: 3 года 7 мес. назад | Торрент скачан:30 раз
Скачать  

14-02-2017 10:36 Тринадцатый этаж Скачать торрент  

Тринадцатый этаж / Botched Год выпуска: 2007
Страна: Германия, Ирландия, Великобритания, США
Жанр: чёрная комедия, криминал, ужасы
Продолжительность: 01:34:00
Перевод: Профессиональный (многоголосый закадровый) R5
Субтитры: Отсутствуют

Режиссер: Кит Райан

Премьера в мире: 30 июля 2007

rating

В ролях: Стивен Дорфф, Дэвид Хип, Алан Смит, Шон Пертуи, Джэми Формен, Расселл Смит, Брона Галлахер, Норма Шихан, Джин Руни, Джейм Мюррэй, Хью О`Конор, Джофф Белл, Зак Магвайр, Эдвард Бейкер-Дьюли

Описание: Профессиональный вор по имени Ритчи проваливает своё последнее задание во Франции, где ему не удаётся похитить бриллианты (точнее, удаётся, но потом он их глупо теряет). Его босс даёт ему шанс исправиться, для чего молодому человеку предстоит отправиться в холодную Россию, в Москву, где он должен будет пробраться в здание небоскрёба и похитить в пентхаусе драгоценный крест. В помощь к Ритчи даются два русских брата-братка (толстяк и худой). Они пробираются в здание, заходят в лифт и методом манипуляций с его электронной начинкой поднимаются на самый верх, где после короткой перестрелки добывают искомую вещь и забираются в лифт, чтобы покинуть здание. Но охрана получает информацию о нападении и переправляет лифт прямиком на 13-й этаж, закрытый для общего пользования. В связи с этим трое бандитов оказываются на пустующем этаже вместе с несколькими невольными заложниками и обитающим там маньяком, который возомнил себя потомком Ивана Грозного…

Качество: WEB-DLRip
Формат: AVI
Видео кодек: XviD
Аудио кодек: AC3
Видео: XviD 704x400 (1.76:1), 23.976 fps, XviD build 73 ~1659 kbps avg, 0.26 bit/pixel
Аудио#1: AC-3, 48 kHz,6 ch, ~448 kbps - Профессиональный (многоголосый закадровый) R5
Аудио#2: AC-3,48 kHz,6 ch, ~448 kbps - оригинал (отдельно)

Рекламы Нет!!!
скриншот  скриншот  скриншот  скриншот  скриншот  

General
Complete name : E:\Botched.2007\Botched.2007.web-dlrip_[1.46].avi
Format : AVI
Format/Info : Audio Video Interleave
File size : 1.46 GiB
Duration : 1 h 34 min
Overall bit rate : 2 203 kb/s
Writing application : VirtualDubMod 1.5.10.3 | www.virtualdub-fr.org || (build 2550/release)
Writing library : VirtualDubMod build 2550/release

Video
ID : 0
Format : MPEG-4 Visual
Format profile : Advanced Simple@L5
Format settings, BVOP : 2
Format settings, QPel : No
Format settings, GMC : No warppoints
Format settings, Matrix : Custom
Codec ID : XVID
Codec ID/Hint : XviD
Duration : 1 h 34 min
Bit rate : 1 659 kb/s
Width : 704 pixels
Height : 400 pixels
Display aspect ratio : 16:9
Frame rate : 23.976 (24000/1001) FPS
Original frame rate : 23.976 (23976/1000) FPS
Color space : YUV
Chroma subsampling : 4:2:0
Bit depth : 8 bits
Scan type : Progressive
Compression mode : Lossy
Bits/(Pixel*Frame) : 0.246
Stream size : 1.10 GiB (75%)
Writing library : XviD 73

Audio
ID : 1
Format : AC-3
Format/Info : Audio Coding 3
Mode extension : CM (complete main)
Format settings, Endianness : Big
Codec ID : 2000
Duration : 1 h 34 min
Bit rate mode : Constant
Bit rate : 448 kb/s
Channel(s) : 6 channels
Channel positions : Front: L C R, Side: L R, LFE
Sampling rate : 48.0 kHz
Frame rate : 31.250 FPS (1536 spf)
Bit depth : 16 bits
Compression mode : Lossy
Stream size : 303 MiB (20%)
Alignment : Split accross interleaves

piratbit.org



Скачать Тринадцатый этаж через торрент http://pic1.kartinco.top/images/11/cvgo8.jpg Скачать фильм Тринадцатый этаж через торрент бесплантно в хорошем качестве Описание: Профессиональный вор по имени Ритчи проваливает своё последнее задание во Франции, где ему не удаётся похитить бриллианты ... 10 10 1
Торрент: Зарегистрирован [2017-02-14 10:36] · скачан: 30 раз
Статус: √ проверено
Размер: 1.71 GB
Как cкачать? Как скачать Тринадцатый этаж через торрент | qTorrent

28-11-2019 20:33  

Отключить всю рекламу на сайте

    Дорогой пользователь! Огромная просьба, поблагодарите релизера, оцените раздачу и оставьте свои комментарий, если Вы скачали Тринадцатый этаж через торрент бесплатно! Внесите свою лепту в развитие PiratBit!
    Комментировать посты могут только пользователи прошедшие не сложную регистрацию
    Показать сообщения:    

    Тринадцатый этаж через торрент
    Скачать бесплатно Тринадцатый этаж
    Тринадцатый этаж скачать торрент
    Тринадцатый этаж смотреть онлайн
    Cкачать фильм Тринадцатый этаж бесплатно
    Тринадцатый этаж скачать торрент в хорошем качестве
    Тринадцатый этаж смотреть онлайн бесплатно в хорошем качестве


    Вы не можете начинать темы
    Вы не можете отвечать на сообщения
    Вы не можете редактировать свои сообщения
    Вы не можете удалять свои сообщения
    Вы не можете голосовать в опросах
    Вы не можете прикреплять файлы к сообщениям
    Вы можете скачивать файлы