Лицензия

MVO

1

1 сезон

Лицензия

Лицензия

13

MVO

1 сезон

Deluxe Edition

pack

Рекомендуем

30

Repack

ВАЖНО

ВАЖНО

Ghostwire

RePack

jed

RePack

fifa19

RePack

RDR2

RePack

NEED FOR SPEED™ PAYBACK

RePack

Кинопоиск HD

 Острые козырьки 6 сезон

6 сезон

FAR CRY 6

RePack

Лицензия

MVO

1

1 сезон

1 сезон

Лицензия

  

Борец и клоун (Борис Барнет, Константин Юдин) [1957, СССР, драма, спорт, DVDRip от AVP Studio]

Борец и клоун через торрент piratbit.org

Размер: 745 MB | Добавлен: 5 лет 7 мес. назад | Торрент скачан:7 раз
Смотреть онлайн Борец и клоун | Скачать   

14-02-2017 10:44 Борец и клоун Скачать торрент  

Борец и клоун
Страна: СССР
Производство: Мосфильм

Жанр: драма, спорт
Год выпуска: 1957
Продолжительность: 01:34:25

Перевод: Не требуется
Cубтитры: нет
Оригинальная аудиодорожка: русский

Режиссер: Борис Барнет, Константин Юдин

В ролях:
Станислав Чекан, Александр Михайлов (II), Анатолий Соловьёв, Борис Петкер, Ия Арепина, Георгий Вицин, Кюнна Игнатова, Григорий Абрикосов, Леонид Топчиев, Григорий Шпигель, Александр Гумбург, Полина Нятко, Майя Казакова, Степан Каюков, Юрий Медведев...
Об актёрах подробней

Описание:
Фильм об одной из ярких страниц истории русского цирка. Прославленные артисты — борец Иван Поддубный и клоун-дрессировщик Анатолий Дуров — были всемирно знамениты и любимы народом. Но судьбы их полны драматических коллизий.

Источник: DVD5 R5
Качество видео: DVDRip
Формат видео: AVI

Видео: 576x432 (4:3), 25 fps, XviD ~ 966 kbps avg, 0.155 bit/pixel
Аудио: 48 kHz, MP3 2.0, 128 kbps

Раздача от:
Общее
Полное имя : Borec.i.kloun.1957.DVDRip-745_[New-team]_by_AVP_Studio.avi
Формат : AVI
Формат/Информация : Audio Video Interleave
Размер файла : 745 Мбайт
Продолжительность : 1 ч. 34 м.
Общий поток : 1103 Кбит/сек
Программа кодирования : VirtualDubMod 1.5.10.3 | www.virtualdub-fr.org || (build 2550/release)
Библиотека кодирования : VirtualDubMod build 2550/release

Видео
Идентификатор : 0
Формат : MPEG-4 Visual
Профиль формата : Advanced Simple@L5
Параметр BVOP формата : 1
Параметр QPel формата : Нет
Параметр GMC формата : Без точки перехода
Параметр матрицы формата : Выборочная
Идентификатор кодека : XVID
Идентификатор кодека/Подсказка : XviD
Продолжительность : 1 ч. 34 м.
Битрейт : 966 Кбит/сек
Ширина : 576 пикселей
Высота : 432 пикселя
Соотношение сторон : 4:3
Частота кадров : 25,000 кадров/сек
Цветовое пространство : YUV
Субдискретизация насыщенности : 4:2:0
Битовая глубина : 8 бит
Тип развёртки : Прогрессивная
Метод сжатия : С потерями
Бит/(Пиксели*Кадры) : 0.155
Размер потока : 652 Мбайт (88%)
Библиотека кодирования : XviD 73

Аудио
Идентификатор : 1
Формат : AC-3
Формат/Информация : Audio Coding 3
Расширение режима : CM (complete main)
Параметр Endianness формата : Big
Идентификатор кодека : 2000
Продолжительность : 1 ч. 34 м.
Вид битрейта : Постоянный
Битрейт : 128 Кбит/сек
Каналы : 2 канала
Расположение каналов : Front: L R
Частота : 48,0 КГц
Частота кадров : 31,250 кадров/сек (1536 spf)
Битовая глубина : 16 бит
Метод сжатия : С потерями
Размер потока : 86,5 Мбайт (12%)
Выравнивание : Разделение по промежуткам
Продолжительность промежутка : 40 мс. (1,00 видеокадр)
Время предзагрузки промежутка : 500 мс



Скачать Борец и клоун через торрент http://s010.radikal.ru/i311/1702/df/a9e4be60e5c7.png Скачать, смотреть онлайн Борец и клоун бесплантно в хорошем качестве Описание:Фильм об одной из ярких страниц истории русского цирка. Прославленные артисты — борец Иван Поддубный и клоун-дрессировщик Анатолий ... 5.5 10 2
Info! Золотая раздача, скачанное не засчитывается.
Торрент: Зарегистрирован [2017-02-14 10:44] · скачан: 7 раз
Статус: √ проверено
Размер: 745 MB
Как cкачать? Как скачать Борец и клоун через торрент | UTorrent

% Раздел Тема Автор DL S | L
Кино СССР [ 1.46 GB ] Борец и клоун | | DVDRip-AVC от AVP Studio AVP Studio Скачать
1 | 0
Кино СССР [ 1.46 GB ] Борец и клоун | | DVDRip от AVP Studio AVP Studio Скачать
1 | 0

28-11-2019 20:33  

Отключить вcю реклaмy на сайте

    Дорогой пользователь! Огромная просьба, поблагодарите релизера, оцените раздачу и оставьте свои комментарий, если Вы скачали Борец и клоун через торрент бесплатно!!
    Комментировать посты могут только пользователи прошедшие не сложную регистрацию
    Показать сообщения:    


    Борец и клоун через торрент
    Скачать бесплатно Борец и клоун
    Борец и клоун скачать торрент
    Борец и клоун смотреть онлайн
    Cкачать фильм Борец и клоун бесплатно
    Борец и клоун скачать торрент в хорошем качестве
    Борец и клоун смотреть онлайн бесплатно в хорошем качестве
    Вы не можете начинать темы
    Вы не можете отвечать на сообщения
    Вы не можете редактировать свои сообщения
    Вы не можете удалять свои сообщения
    Вы не можете голосовать в опросах
    Вы не можете прикреплять файлы к сообщениям
    Вы можете скачивать файлы