1 сезон

3 сезон

iTunes

1

iTunes

DUB Netflix

iTunes

13

1 сезон

RePack

30

Deluxe

pack

Легкие деньги

ВАЖНО

ИГРА 18+

pack

RePack

MK11

RePack

jed

RePack

fifa19

RePack

RDR2

RePack

NEED FOR SPEED™ PAYBACK

4 сезон

9 сезон

Бесстыжие 9 сезон

Все сериалы

все сериалы на PB.wtf

RePack

FAR CRY 5

Anonymous, доброе утро, мы не успеваем до 1 числа собрать деньги на оплату серверов, помогите нам пожалуйста в это трудное время. В качестве благодарности мы отключим Вам всю рекламу на сайте (укажите свой ник в строку Ваше имя)!

×
  
Magnet ссылка

Новая эра Z / The Girl with All the Gifts (Колм МакКарти) [2016, ужасы, триллер, драма, BDRip-AVC] Дубляж [Лицензия], AVO от ExKinoRay piratbit.org

Новая эра Z через торрент piratbit.org

Размер: 2.68 GB | Добавлен: 4 года 4 мес. назад | Торрент скачан:407 раз
Скачать  

15-02-2017 00:40 Новая эра Z Скачать торрент  

Информация о фильме
Название: Новая эра Z
Оригинальное название: The Girl with All the Gifts
Год выпуска: 2016
Жанр: Ужасы, триллер, драма
Выпущено: США, Великобритания, Altitude Film Entertainment, Altitude Film Sales, BFI Film Fund, Poison Chef
Режиссер: Колм МакКарти
В ролях: Джемма Артертон, Гленн Клоуз, Пэдди Консидайн, Анамария Маринка, Доминик Типпер, Сенниа Нануа, Лобна Фьютерс, Дэниэл Иган, Фисайо Акинаде, Энтони Уэльс

О фильме: Война миров не закончилась. Планету поразил страшный вирус. На людей стали нападать инфицированные особи, поставив человечество на грань исчезновения. Единственная надежда - второе поколение зараженных, опасных, но обладающих феноменальным, более высоким, чем у людей, интеллектом. Они - ключ к созданию спасительной вакцины. Поэтому их держат в специальном бункере, оберегая от контактов с внешним миром. Но однажды ситуация выходит из-под контроля.

rating

Страна: США, Великобритания
Студия: Poison Chef, BFI Film Fund, Altitude Film Sales
Продолжительность: 01:50:55
Перевод: Дублированный [Лицензия], Авторский (одноголосый закадровый) Вартан Дохалов

Файл
Качество: BDRip (AVC)
Видео: MPEG-4 AVC, 1024x510 (2.008:1), 23.976 fps, ~2122 kbps avg, 0.169 bit/pixel
Аудио1: 48 kHz, AC3 Dolby Digital, 3/2 (L,C,R,l,r) + LFE ch, ~448 kbps - Дубляж
Аудио2: 48 kHz, AC3 Dolby Digital, 3/2 (L,C,R,l,r) + LFE ch, ~448 kbps - Авторский
Аудио3: 48 kHz, AC3 Dolby Digital, 3/2 (L,C,R,l,r) + LFE ch, ~448 kbps - Английский
Субтитры: Английские
General
Unique ID : 186907700638943969151172152244492964875 (0x8C9D1D1EB3779833847043308AE6140B)
Complete name : D:\The.Girl.with.All.the.Gifts.2016.2xRus.BDRip.AVC.ExKinoRay.mkv
Format : Matroska
Format version : Version 2
File size : 2.68 GiB
Duration : 1 h 50 min
Overall bit rate : 3 464 kb/s
Movie name : The Girl with All the Gifts (2016) from ExKinoRay
Encoded date : UTC 2017-02-17 23:49:40
Writing application : mkvmerge v5.8.0 ('No Sleep / Pillow') built on Sep 2 2012 15:37:04
Writing library : libebml v1.2.3 + libmatroska v1.3.0

Video
ID : 1
Format : AVC
Format/Info : Advanced Video Codec
Format profile : High@L4.1
Format settings, CABAC : Yes
Format settings, ReFrames : 13 frames
Codec ID : V_MPEG4/ISO/AVC
Duration : 1 h 50 min
Bit rate : 2 122 kb/s
Width : 1 024 pixels
Height : 510 pixels
Display aspect ratio : 2.008
Frame rate mode : Constant
Frame rate : 23.976 (24000/1001) FPS
Color space : YUV
Chroma subsampling : 4:2:0
Bit depth : 8 bits
Scan type : Progressive
Bits/(Pixel*Frame) : 0.169
Stream size : 1.59 GiB (59%)
Title : Enigma
Writing library : x264 core 144 r2525 40bb568
Encoding settings : cabac=1 / ref=13 / deblock=1:-3:-3 / analyse=0x3:0x113 / me=umh / subme=10 / psy=1 / psy_rd=1.00:0.03 / mixed_ref=1 / me_range=32 / chroma_me=1 / trellis=2 / 8x8dct=1 / cqm=0 / deadzone=21,11 / fast_pskip=1 / chroma_qp_offset=-3 / threads=12 / lookahead_threads=3 / sliced_threads=0 / nr=0 / decimate=1 / interlaced=0 / bluray_compat=0 / constrained_intra=0 / bframes=10 / b_pyramid=2 / b_adapt=2 / b_bias=0 / direct=3 / weightb=1 / open_gop=0 / weightp=2 / keyint=240 / keyint_min=23 / scenecut=40 / intra_refresh=0 / rc_lookahead=40 / rc=2pass / mbtree=0 / bitrate=2122 / ratetol=1.0 / qcomp=0.61 / qpmin=0 / qpmax=51 / qpstep=4 / cplxblur=20.0 / qblur=0.5 / vbv_maxrate=50000 / vbv_bufsize=62500 / nal_hrd=none / filler=0 / ip_ratio=1.40 / pb_ratio=1.30 / aq=1:0.80
Language : English
Default : Yes
Forced : No
Color range : Limited
Color primaries : BT.709
Transfer characteristics : BT.709
Matrix coefficients : BT.709

Audio #1
ID : 2
Format : AC-3
Format/Info : Audio Coding 3
Mode extension : CM (complete main)
Format settings, Endianness : Big
Codec ID : A_AC3
Duration : 1 h 50 min
Bit rate mode : Constant
Bit rate : 448 kb/s
Channel(s) : 6 channels
Channel positions : Front: L C R, Side: L R, LFE
Sampling rate : 48.0 kHz
Frame rate : 31.250 FPS (1536 spf)
Bit depth : 16 bits
Compression mode : Lossy
Stream size : 355 MiB (13%)
Title : Dub (Лицензия)
Language : Russian
Default : Yes
Forced : No

Audio #2
ID : 3
Format : AC-3
Format/Info : Audio Coding 3
Mode extension : CM (complete main)
Format settings, Endianness : Big
Codec ID : A_AC3
Duration : 1 h 50 min
Bit rate mode : Constant
Bit rate : 448 kb/s
Channel(s) : 6 channels
Channel positions : Front: L C R, Side: L R, LFE
Sampling rate : 48.0 kHz
Frame rate : 31.250 FPS (1536 spf)
Bit depth : 16 bits
Compression mode : Lossy
Stream size : 355 MiB (13%)
Title : AVO (Dohalov)
Language : Russian
Default : No
Forced : No

Audio #3
ID : 4
Format : AC-3
Format/Info : Audio Coding 3
Mode extension : CM (complete main)
Format settings, Endianness : Big
Codec ID : A_AC3
Duration : 1 h 50 min
Bit rate mode : Constant
Bit rate : 448 kb/s
Channel(s) : 6 channels
Channel positions : Front: L C R, Side: L R, LFE
Sampling rate : 48.0 kHz
Frame rate : 31.250 FPS (1536 spf)
Bit depth : 16 bits
Compression mode : Lossy
Stream size : 355 MiB (13%)
Language : English
Default : No
Forced : No

Text #1
ID : 5
Format : UTF-8
Codec ID : S_TEXT/UTF8
Codec ID/Info : UTF-8 Plain Text
Title : Full
Language : English
Default : No
Forced : No

Text #2
ID : 6
Format : UTF-8
Codec ID : S_TEXT/UTF8
Codec ID/Info : UTF-8 Plain Text
Title : SDH
Language : English
Default : No
Forced : No

Menu
00:00:00.000 : en:00:00:00.000
00:09:22.312 : en:00:09:22.312
00:17:59.537 : en:00:17:59.537
00:31:09.826 : en:00:31:09.826
00:41:11.636 : en:00:41:11.636
00:48:34.453 : en:00:48:34.453
00:58:38.807 : en:00:58:38.807
01:07:45.561 : en:01:07:45.561
01:18:03.137 : en:01:18:03.137
01:25:42.679 : en:01:25:42.679
01:36:59.772 : en:01:36:59.772
01:45:52.930 : en:01:45:52.930
Релиз от:

Автор релиза: piratbit.org



Скачать Новая эра Z через торрент http://s019.radikal.ru/i641/1701/94/3e367e2e4054.jpg Скачать фильм Новая эра Z через торрент бесплантно в хорошем качестве О фильме: Война миров не закончилась. Планету поразил страшный вирус. На людей стали нападать инфицированные особи, поставив человечество ... 8.9 10 13
Info! Золотая раздача, скачанное не засчитывается.
Торрент: Зарегистрирован [2017-02-18 01:13] · скачан: 407 раз
Статус: √ проверено
Размер: 2.68 GB
Как cкачать? Как скачать Новая эра Z через торрент | UTorrent



Последний раз редактировалось: Enigma2010 (2017-02-18 01:12), всего редактировалось 2 раз(а)

28-11-2019 20:33  

Отключить всю рекламу на сайте


15-02-2017 09:39 Новая эра Z Скачать торрент  

Один из лучших фильмов про зомби, "сценарист не был бухим и обдолбанным". 10 из 10. Советую посмотреть.piratbit.org



15-02-2017 09:57 Новая эра Z Скачать торрент  

подтверждаю ... фильм со смыслом, стоит просмотраpiratbit.org



15-02-2017 12:33 Новая эра Z Скачать торрент  

Весьма не плохой фильм .piratbit.org



18-02-2017 00:24 Новая эра Z Скачать торрент  

чёт херовенько то с качеством...всё в пикселях каких то piratbit.org



18-02-2017 01:22 Новая эра Z Скачать торрент  

kaxaber74 писал(а):

чёт херовенько то с качеством...всё в пикселях каких то

А вы на чём смотрите фильм? Не все двд плееры поддерживают этот формат.piratbit.org



    Дорогой пользователь! Огромная просьба, поблагодарите релизера, оцените раздачу и оставьте свои комментарий, если Вы скачали Новая эра Z через торрент бесплатно! Внесите свою лепту в развитие PiratBit!
    Комментировать посты могут только пользователи прошедшие не сложную регистрацию
    Показать сообщения:    

    Новая эра Z через торрент
    Скачать бесплатно Новая эра Z
    Новая эра Z скачать торрент
    Новая эра Z смотреть онлайн
    Cкачать фильм Новая эра Z бесплатно
    Новая эра Z скачать торрент в хорошем качестве
    Новая эра Z смотреть онлайн бесплатно в хорошем качестве


    Вы не можете начинать темы
    Вы не можете отвечать на сообщения
    Вы не можете редактировать свои сообщения
    Вы не можете удалять свои сообщения
    Вы не можете голосовать в опросах
    Вы не можете прикреплять файлы к сообщениям
    Вы можете скачивать файлы