Доктор Стрэндж

Лицензия

Добыча

Дубляж

Дом дракона

1 сезон

Тор

Дубляж

В эфире

Дубляж

Там, где раки поют

MVO

Властелин колец

1 сезон

Ultimate

pack

Рекомендуем

30

Пиратка

ВАЖНО

ВАЖНО

Ghostwire

Пиратка

jed

RePack

nioh2

RePack

RDR2

RePack

NEED FOR SPEED™ PAYBACK

RePack

скачать торрент

Кинопоиск HD

Острые козырьки 6 сезон

6 сезон

FAR CRY 6

RePack

скачать торрент

Лицензия

скачать торрент

MVO

1

1 сезон

скачать торрент

1 сезон

скачать торрент

Лицензия

  

Последний человек на Земле / The Last Man on Earth (Убальдо Рагона, Сидней Сэлкоу) [1964, фантастика, ужасы, BDRip 1080p ] VO

Последний человек на Земле через торрент piratbit.org

Размер: 9.72 GB | Добавлен: 5 лет 9 мес. назад | Торрент скачан:15 раз
Смотреть онлайн | Скачать   

15-02-2017 06:09 Последний человек на Земле Скачать торрент  

Название: Последний человек на Земле
Оригинальное название: The Last Man on Earth
Год выпуска: 1964
Страна: США, Италия
Жанр: фантастика, ужасы
Продолжительность: 01:27:03
Перевод: любительский одноголосый

Режиссёр: Убальдо Рагона, Сидней Сэлкоу

В ролях: Винсент Прайс, Франка Беттойя, Эмма Даниели, Джакомо Росси-Стюарт, Умберто Рахо, Кристи Куртлэнд, Антонио Кореви, Этторе Риботта, Роландо Де Росси, Кэролин Де Фонсека

Описание: Доктор Роберт Морган, благодаря случайно приобретённому иммунитету, стал единственным, выжившим после опустошительной чумы, пронесшейся над Землёй. Сейчас он совсем одинок… или это только так кажется. Когда наступает ночь, жертвы чумы просыпаются и идут на поиски свежей крови… его крови!... Фильм по раману Ричарда Мэтисона «Я — легенда».



Качество: BDRip 1080p
Формат: MKV
Видео: MPEG-4 AVC, 14.3 Mбит/с, 1920x820, 23,976 кадра/с
Аудио 1: русский, AC3, 192 kbps, 2 ch, 48 kHz [любительский одноголосый, Андрей Васильев]
Аудио 2: английский, DTS, 1509 kbps, 2 ch, 48 kHz [оригинал]
Субтитры 1: русские
Субтитры 2: английские
Имеются неименованные главы/чаптеры.
Общее
Уникальный идентификатор : 199378864254016592499485414104088911183 (0x95FEF8F565D465EDBBDA9764A51B1D4F)
Полное имя : D:\Video\Последний человек на Земле.1964.BDRip.1080p by msltel.mkv
Формат : Matroska
Версия формата : Version 4 / Version 2
Размер файла : 9,72 Гбайт
Продолжительность : 1 ч. 27 м.
Общий поток : 16,0 Мбит/сек
Название фильма : Rip by msltel
Дата кодирования : UTC 2017-02-15 03:43:05
Программа кодирования : mkvmerge v8.2.0 ('World of Adventure') 64bit
Библиотека кодирования : libebml v1.3.1 + libmatroska v1.4.2

Видео
Идентификатор : 1
Формат : AVC
Формат/Информация : Advanced Video Codec
Профиль формата : High@L4.1
Параметр CABAC формата : Да
Параметр ReFrames формата : 4 кадра
Идентификатор кодека : V_MPEG4/ISO/AVC
Продолжительность : 1 ч. 27 м.
Битрейт : 14,3 Мбит/сек
Ширина : 1920 пикселей
Высота : 820 пикселей
Соотношение сторон : 2,35:1
Режим частоты кадров : Постоянный
Частота кадров : 23,976 (24000/1001) кадра/сек
Цветовое пространство : YUV
Субдискретизация насыщенности : 4:2:0
Битовая глубина : 8 бит
Тип развёртки : Прогрессивная
Бит/(Пиксели*Кадры) : 0.378
Размер потока : 8,68 Гбайт (89%)
Библиотека кодирования : x264 core 146 r2538 121396c
Настройки программы : cabac=1 / ref=4 / deblock=1:-3:-3 / analyse=0x3:0x113 / me=umh / subme=11 / psy=1 / psy_rd=1.00:0.15 / mixed_ref=1 / me_range=32 / chroma_me=1 / trellis=2 / 8x8dct=1 / cqm=0 / deadzone=21,11 / fast_pskip=0 / chroma_qp_offset=-3 / threads=6 / lookahead_threads=1 / sliced_threads=0 / nr=0 / decimate=1 / interlaced=0 / bluray_compat=0 / constrained_intra=0 / bframes=11 / b_pyramid=2 / b_adapt=2 / b_bias=0 / direct=1 / weightb=1 / open_gop=0 / weightp=2 / keyint=230 / keyint_min=23 / scenecut=40 / intra_refresh=0 / rc_lookahead=40 / rc=crf / mbtree=0 / crf=19.1 / qcomp=0.60 / qpmin=0 / qpmax=69 / qpstep=4 / vbv_maxrate=62500 / vbv_bufsize=78125 / crf_max=0.0 / nal_hrd=none / filler=0 / ip_ratio=1.40 / pb_ratio=1.30 / aq=1:1.00
Язык : English
Default : Да
Forced : Нет

Аудио #1
Идентификатор : 2
Формат : AC-3
Формат/Информация : Audio Coding 3
Расширение режима : CM (complete main)
Параметр Endianness формата : Big
Идентификатор кодека : A_AC3
Продолжительность : 1 ч. 27 м.
Вид битрейта : Постоянный
Битрейт : 192 Кбит/сек
Каналы : 2 канала
Расположение каналов : Front: L R
Частота : 48,0 КГц
Частота кадров : 31,250 кадров/сек (1536 spf)
Битовая глубина : 16 бит
Метод сжатия : С потерями
Размер потока : 120 Мбайт (1%)
Заголовок : любительский одноголосый, Андрей Васильев
Язык : Russian
Default : Да
Forced : Нет

Аудио #2
Идентификатор : 3
Формат : DTS
Формат/Информация : Digital Theater Systems
Режим : 16
Параметр Endianness формата : Big
Идентификатор кодека : A_DTS
Продолжительность : 1 ч. 27 м.
Вид битрейта : Постоянный
Битрейт : 1509 Кбит/сек
Каналы : 2 канала
Расположение каналов : Front: L R
Частота : 48,0 КГц
Частота кадров : 93,750 кадра/сек (512 spf)
Битовая глубина : 24 бит
Метод сжатия : С потерями
Размер потока : 940 Мбайт (9%)
Заголовок : original
Язык : English
Default : Нет
Forced : Нет

Текст #1
Идентификатор : 4
Формат : UTF-8
Идентификатор кодека : S_TEXT/UTF8
Идентификатор кодека/Информация : UTF-8 Plain Text
Продолжительность : 1 ч. 24 м.
Битрейт : 49 бит/сек
Count of elements : 499
Размер потока : 30,3 Кбайт (0%)
Заголовок : русские
Язык : Russian
Default : Нет
Forced : Нет

Текст #2
Идентификатор : 5
Формат : UTF-8
Идентификатор кодека : S_TEXT/UTF8
Идентификатор кодека/Информация : UTF-8 Plain Text
Продолжительность : 1 ч. 24 м.
Битрейт : 28 бит/сек
Count of elements : 526
Размер потока : 17,6 Кбайт (0%)
Заголовок : английские
Язык : English
Default : Нет
Forced : Нет

Меню
00:00:00.000 : :Chapter 01
00:03:32.086 : :Chapter 02
00:14:46.802 : :Chapter 03
00:21:40.340 : :Chapter 04
00:28:07.976 : :Chapter 05
00:34:36.532 : :Chapter 06
00:42:37.638 : :Chapter 07
00:49:06.485 : :Chapter 08
00:59:02.830 : :Chapter 09
01:05:28.256 : :Chapter 10
01:14:55.573 : :Chapter 11
01:20:46.466 : :Chapter 12



Скачать Последний человек на Земле через торрент http://s018.radikal.ru/i525/1702/a3/e59f54cd388a.jpg Скачать, смотреть онлайн Последний человек на Земле бесплантно в хорошем качестве Описание: Доктор Роберт Морган, благодаря случайно приобретённому иммунитету, стал единственным, выжившим после опустошительной чумы, ... 10 10 5
Info! Золотая раздача, скачанное не засчитывается.
Торрент: Зарегистрирован [2017-02-15 06:09] · скачан: 15 раз
Статус: √ проверено
Размер: 9.72 GB
Как cкачать? Как скачать Последний человек на Земле через торрент | UTorrent

% Раздел Тема Автор DL S | L
Фильмы [HD 720p, 1080p] (Звук Cam, VO, DVO) [ 3.39 GB ] Последний человек на Земле / The Last Man on Earth | | 720p msltel Скачать
1 | 0

28-11-2019 20:33  


Отключить вcю реклaмy на сайте, в т.ч. и в плеере онлайн просмотра!

18-02-2017 07:12 Последний человек на Земле Скачать торрент  

ллл



    Дорогой пользователь! Огромная просьба, поблагодарите релизера, оцените раздачу и оставьте свои комментарий, если Вы скачали Последний человек на Земле через торрент бесплатно!!
    Комментировать посты могут только пользователи прошедшие не сложную регистрацию
    Показать сообщения:    


    Последний человек на Земле через торрент
    Скачать бесплатно Последний человек на Земле
    Последний человек на Земле скачать торрент
    Последний человек на Земле смотреть онлайн
    Cкачать фильм Последний человек на Земле бесплатно
    Последний человек на Земле скачать торрент в хорошем качестве
    Последний человек на Земле смотреть онлайн бесплатно в хорошем качестве
    Вы не можете начинать темы
    Вы не можете отвечать на сообщения
    Вы не можете редактировать свои сообщения
    Вы не можете удалять свои сообщения
    Вы не можете голосовать в опросах
    Вы не можете прикреплять файлы к сообщениям
    Вы можете скачивать файлы
    Последний человек на Земле / The Last Man on Earth [1964, фантастика, ужасы, BDRip 1080p ] VO смотреть онлайн, скачать торрент picoco.icu