Доктор Стрэндж

Лицензия

Добыча

Дубляж

Дом дракона

1 сезон

Тор

Дубляж

В эфире

Дубляж

Там, где раки поют

MVO

Властелин колец

1 сезон

Ultimate

pack

Рекомендуем

30

Пиратка

ВАЖНО

ВАЖНО

Ghostwire

Пиратка

jed

RePack

nioh2

RePack

RDR2

RePack

NEED FOR SPEED™ PAYBACK

RePack

скачать торрент

Кинопоиск HD

Острые козырьки 6 сезон

6 сезон

FAR CRY 6

RePack

скачать торрент

Лицензия

скачать торрент

MVO

1

1 сезон

скачать торрент

1 сезон

скачать торрент

Лицензия

  

Фирма / The Firm (Сидни Поллак) [1993, триллер, драма, детектив, BDRip 720p ] 3 x MVO, 3 x AVO

Фирма через торрент piratbit.org

Размер: 10.51 GB | Добавлен: 5 лет 9 мес. назад | Торрент скачан:89 раз
Смотреть онлайн | Скачать   

15-02-2017 08:18 Фирма Скачать торрент  

Название: Фирма
Оригинальное название: The Firm
Год выпуска: 1993
Страна: США
Жанр: триллер, драма, детектив
Продолжительность: 02:34:34
Перевод: профессиональный многоголосый, авторский

Режиссёр: Сидни Поллак

В ролях: Том Круз, Джинн Трипплхорн, Джин Хэкмен, Хэл Холбрук, Терри Кинни, Уилфорд Бримли, Эд Харрис, Холли Хантер, Дэвид Стрэтэйрн, Гэри Бьюзи, Стивен Хилл, Тобин Белл, Барбара Гэррик, Джерри Хардин, Пол Кэлдерон, Джерри Вайнтрауб, Салливан Уолкер, Карина Ломбард, Марго Мартиндейл, Джон Бил

Описание: Том Круз играет честолюбивого и амбициозного, женатого на богатой красотке, выпускника юридического факультета университета в Гарварде. которого приглашают работать на отличных условиях в небольшую юридическую фирму. Молодой фирмач мечтает о высотах карьеры, однако вскоре обнаруживает, что эта фирма обслуживает влиятельные мафиозные кланы Чикаго. Отказаться от сотрудничества с ними - значит подписать себе смертельный приговор. С другой стороны, за ним начинают следить сотрудники ФБР... Фильм по бестселлеру Джона Гришэма.



Качество: BDRip 720p
Формат: MKV
Видео: MPEG-4 AVC, 6303 Кбит/с, 1280x720, 23,976 кадра/с
Аудио 1: русский, AC3, 640 kbps, 6 ch, 48 kHz [профессиональный многоголосый, FDV]
Аудио 2: русский, AC3, 448 kbps, 6 ch, 48 kHz [профессиональный многоголосый, HTB+]
Аудио 3: русский, AC3, 224 kbps, 2 ch, 48 kHz [профессиональный многоголосый, CTC]
Аудио 4: русский, AC3, 192 kbps, 2 ch, 48 kHz [авторский, Леонид Володарский]
Аудио 5: русский, AC3, 640 kbps, 6 ch, 48 kHz [авторский, Андрей Гаврилов]
Аудио 6: русский, AC3, 640 kbps, 6 ch, 48 kHz [авторский, Юрий Живов]
Аудио 7: английский, AC3, 640 kbps, 6 ch, 48 kHz [оригинал]
Субтитры: английские
Общее
Уникальный идентификатор : 173315331862438112763731536697253824678 (0x826351994E92D53ABC3B0D6AC70608A6)
Полное имя : D:\Video\Фирма.1993.BDRip.720p by msltel.mkv
Формат : Matroska
Версия формата : Version 4 / Version 2
Размер файла : 10,5 Гбайт
Продолжительность : 2 ч. 34 м.
Общий поток : 9731 Кбит/сек
Название фильма : Rip by msltel
Дата кодирования : UTC 2017-02-15 03:21:22
Программа кодирования : mkvmerge v8.2.0 ('World of Adventure') 64bit
Библиотека кодирования : libebml v1.3.1 + libmatroska v1.4.2

Видео
Идентификатор : 1
Формат : AVC
Формат/Информация : Advanced Video Codec
Профиль формата : High@L4.1
Параметр CABAC формата : Да
Параметр ReFrames формата : 9 кадров
Идентификатор кодека : V_MPEG4/ISO/AVC
Продолжительность : 2 ч. 34 м.
Битрейт : 6303 Кбит/сек
Ширина : 1280 пикселей
Высота : 720 пикселей
Соотношение сторон : 16:9
Режим частоты кадров : Постоянный
Частота кадров : 23,976 (24000/1001) кадра/сек
Цветовое пространство : YUV
Субдискретизация насыщенности : 4:2:0
Битовая глубина : 8 бит
Тип развёртки : Прогрессивная
Бит/(Пиксели*Кадры) : 0.285
Размер потока : 6,81 Гбайт (65%)
Библиотека кодирования : x264 core 146 r2538 121396c
Настройки программы : cabac=1 / ref=9 / deblock=1:-3:-3 / analyse=0x3:0x113 / me=umh / subme=11 / psy=1 / psy_rd=1.00:0.15 / mixed_ref=1 / me_range=32 / chroma_me=1 / trellis=2 / 8x8dct=1 / cqm=0 / deadzone=21,11 / fast_pskip=0 / chroma_qp_offset=-3 / threads=6 / lookahead_threads=1 / sliced_threads=0 / nr=0 / decimate=1 / interlaced=0 / bluray_compat=0 / constrained_intra=0 / bframes=8 / b_pyramid=2 / b_adapt=2 / b_bias=0 / direct=1 / weightb=1 / open_gop=0 / weightp=2 / keyint=230 / keyint_min=23 / scenecut=40 / intra_refresh=0 / rc_lookahead=40 / rc=crf / mbtree=0 / crf=18.4 / qcomp=0.60 / qpmin=0 / qpmax=69 / qpstep=4 / vbv_maxrate=62500 / vbv_bufsize=78125 / crf_max=0.0 / nal_hrd=none / filler=0 / ip_ratio=1.40 / pb_ratio=1.30 / aq=1:1.00
Язык : English
Default : Да
Forced : Нет

Аудио #1
Идентификатор : 2
Формат : AC-3
Формат/Информация : Audio Coding 3
Расширение режима : CM (complete main)
Параметр Endianness формата : Big
Идентификатор кодека : A_AC3
Продолжительность : 2 ч. 34 м.
Вид битрейта : Постоянный
Битрейт : 640 Кбит/сек
Каналы : 6 каналов
Расположение каналов : Front: L C R, Side: L R, LFE
Частота : 48,0 КГц
Частота кадров : 31,250 кадров/сек (1536 spf)
Битовая глубина : 16 бит
Метод сжатия : С потерями
Размер потока : 708 Мбайт (7%)
Заголовок : MVO (FDV)
Язык : Russian
Default : Да
Forced : Нет

Аудио #2
Идентификатор : 3
Формат : AC-3
Формат/Информация : Audio Coding 3
Расширение режима : CM (complete main)
Параметр Endianness формата : Big
Идентификатор кодека : A_AC3
Продолжительность : 2 ч. 34 м.
Вид битрейта : Постоянный
Битрейт : 448 Кбит/сек
Каналы : 6 каналов
Расположение каналов : Front: L C R, Side: L R, LFE
Частота : 48,0 КГц
Частота кадров : 31,250 кадров/сек (1536 spf)
Битовая глубина : 16 бит
Метод сжатия : С потерями
Размер потока : 495 Мбайт (5%)
Заголовок : MVO (HTB+)
Язык : Russian
Default : Нет
Forced : Нет

Аудио #3
Идентификатор : 4
Формат : AC-3
Формат/Информация : Audio Coding 3
Расширение режима : CM (complete main)
Параметр Endianness формата : Big
Идентификатор кодека : A_AC3
Продолжительность : 2 ч. 34 м.
Вид битрейта : Постоянный
Битрейт : 224 Кбит/сек
Каналы : 2 канала
Расположение каналов : Front: L R
Частота : 48,0 КГц
Частота кадров : 31,250 кадров/сек (1536 spf)
Битовая глубина : 16 бит
Метод сжатия : С потерями
Размер потока : 248 Мбайт (2%)
Заголовок : MVO (CTC)
Язык : Russian
Default : Нет
Forced : Нет

Аудио #4
Идентификатор : 5
Формат : AC-3
Формат/Информация : Audio Coding 3
Расширение режима : CM (complete main)
Параметр Endianness формата : Big
Идентификатор кодека : A_AC3
Продолжительность : 2 ч. 34 м.
Вид битрейта : Постоянный
Битрейт : 192 Кбит/сек
Каналы : 2 канала
Расположение каналов : Front: L R
Частота : 48,0 КГц
Частота кадров : 31,250 кадров/сек (1536 spf)
Битовая глубина : 16 бит
Метод сжатия : С потерями
Размер потока : 212 Мбайт (2%)
Заголовок : AVO (Леонид Володарский)
Язык : Russian
Default : Нет
Forced : Нет

Аудио #5
Идентификатор : 6
Формат : AC-3
Формат/Информация : Audio Coding 3
Расширение режима : CM (complete main)
Параметр Endianness формата : Big
Идентификатор кодека : A_AC3
Продолжительность : 2 ч. 34 м.
Вид битрейта : Постоянный
Битрейт : 640 Кбит/сек
Каналы : 6 каналов
Расположение каналов : Front: L C R, Side: L R, LFE
Частота : 48,0 КГц
Частота кадров : 31,250 кадров/сек (1536 spf)
Битовая глубина : 16 бит
Метод сжатия : С потерями
Размер потока : 708 Мбайт (7%)
Заголовок : AVO (Андрей Гаврилов)
Язык : Russian
Default : Нет
Forced : Нет

Аудио #6
Идентификатор : 7
Формат : AC-3
Формат/Информация : Audio Coding 3
Расширение режима : CM (complete main)
Параметр Endianness формата : Big
Идентификатор кодека : A_AC3
Продолжительность : 2 ч. 34 м.
Вид битрейта : Постоянный
Битрейт : 640 Кбит/сек
Каналы : 6 каналов
Расположение каналов : Front: L C R, Side: L R, LFE
Частота : 48,0 КГц
Частота кадров : 31,250 кадров/сек (1536 spf)
Битовая глубина : 16 бит
Метод сжатия : С потерями
Размер потока : 708 Мбайт (7%)
Заголовок : AVO (Юрий Живов)
Язык : Russian
Default : Нет
Forced : Нет

Аудио #7
Идентификатор : 8
Формат : AC-3
Формат/Информация : Audio Coding 3
Расширение режима : CM (complete main)
Параметр Endianness формата : Big
Идентификатор кодека : A_AC3
Продолжительность : 2 ч. 34 м.
Вид битрейта : Постоянный
Битрейт : 640 Кбит/сек
Каналы : 6 каналов
Расположение каналов : Front: L C R, Side: L R, LFE
Частота : 48,0 КГц
Частота кадров : 31,250 кадров/сек (1536 spf)
Битовая глубина : 16 бит
Метод сжатия : С потерями
Размер потока : 708 Мбайт (7%)
Заголовок : original
Язык : English
Default : Нет
Forced : Нет

Текст
Идентификатор : 9
Формат : UTF-8
Идентификатор кодека : S_TEXT/UTF8
Идентификатор кодека/Информация : UTF-8 Plain Text
Продолжительность : 2 ч. 30 м.
Битрейт : 58 бит/сек
Count of elements : 1770
Размер потока : 64,2 Кбайт (0%)
Заголовок : английские
Язык : English
Default : Нет
Forced : Нет



Скачать Фирма через торрент http://s019.radikal.ru/i631/1702/4a/031e8f574e18.jpg Скачать, смотреть онлайн Фирма бесплантно в хорошем качестве Описание: Том Круз играет честолюбивого и амбициозного, женатого на богатой красотке, выпускника юридического факультета университета в ... 10 10 4
Торрент: Зарегистрирован [2017-02-15 08:18] · скачан: 89 раз
Статус: √ проверено
Размер: 10.51 GB
Как cкачать? Как скачать Фирма через торрент | UTorrent

% Раздел Тема Автор DL S | L
Фильмы [HD 720p, 1080p] (Хороший звук DUB, MVO) [ 22.83 GB ] Фирма / The Firm | MVO | 1080p msltel Скачать
1 | 0



Последний раз редактировалось: msltel (2017-02-17 06:06), всего редактировалось 1 раз

28-11-2019 20:33  


Отключить вcю реклaмy на сайте, в т.ч. и в плеере онлайн просмотра!

15-02-2017 09:23 Фирма Скачать торрент  

Почему это в Экранках?



15-02-2017 09:28 Фирма Скачать торрент  

блин, как наловчились экранки снимать, уму не постижимо)) сразу в блюрик и с семью дорожками. наверняка на айфон снимали))



17-02-2017 07:28 Фирма Скачать торрент  

tamburetko писал(а):

блин, как наловчились экранки снимать, уму не постижимо)) сразу в блюрик и с семью дорожками. наверняка на айфон снимали))

а говорят у русских руки из жопы растут



    Дорогой пользователь! Огромная просьба, поблагодарите релизера, оцените раздачу и оставьте свои комментарий, если Вы скачали Фирма через торрент бесплатно!!
    Комментировать посты могут только пользователи прошедшие не сложную регистрацию
    Показать сообщения:    


    Фирма через торрент
    Скачать бесплатно Фирма
    Фирма скачать торрент
    Фирма смотреть онлайн
    Cкачать фильм Фирма бесплатно
    Фирма скачать торрент в хорошем качестве
    Фирма смотреть онлайн бесплатно в хорошем качестве
    Вы не можете начинать темы
    Вы не можете отвечать на сообщения
    Вы не можете редактировать свои сообщения
    Вы не можете удалять свои сообщения
    Вы не можете голосовать в опросах
    Вы не можете прикреплять файлы к сообщениям
    Вы можете скачивать файлы
    Фирма / The Firm [1993, триллер, драма, детектив, BDRip 720p ] 3 x MVO, 3 x AVO смотреть онлайн, скачать торрент picoco.icu