2 сезон

iTunes

MVO

1

2 сезон

iTunes

iTunes

1 сезон

RePack

30

Ultimate

ВАЖНО

ИГРА 18+

pack

RePack

MK11
pack

Легкие деньги

RePack

jed

RePack

fifa19

RePack

RDR2

RePack

NEED FOR SPEED™ PAYBACK

4 сезон

9 сезон

Бесстыжие 9 сезон

Все сериалы

все сериалы на PB.wtf

RePack

FAR CRY 5

Anonymous, доброй ночи, мы не успеваем собрать деньги на оплату серверов за декабрь и январь, помогите нам пожалуйста в это трудное время. В качестве благодарности мы отключим Вам всю рекламу на сайте (укажите свой ник в строку Ваше имя)!

×
  
Magnet ссылка

Создавая Изумрудный город (Фильм о фильме) / Oz Reimagined: The Making of Emerald City (Крис Петерсен) [2017 г., Документальный, HDTVRip, Профессиональный (многоголосый)] от R.G.Resident piratbit.org

Скачать  

15-02-2017 11:51 Создавая Изумрудный город Скачать торрент  

Создавая Изумрудный город (Фильм о фильме) / Oz Reimagined: The Making of Emerald City
Год выпуска: 2017
Страна: США, NBC Universal Television
Жанр: Документальный
Продолжительность: 00:42:34
Перевод: Профессиональный (многоголосый)

Режиссер: Крис Петерсен

В ролях: Герран Хауэлл, Адриа Архона, Винсент Д`Онофрио, Оливер Джексон-Коэн, Изабель Лукас, Стефани Мартини, Ана Улару, Рокси Штернберг, Ребека Ри, Оулавюр Дарри Оулафссон

Описание: Заглянем за кулисы Изумрудного города и подсмотреть в производстве, от Испании до Венгрии. Присоединяйтесь к нам на этот всеобъемлющий взгляд на создание этой грандиозной серии с актерами и съемочной группой. Обнаружить эффекты, используемые для создания Оз, детали костюма, а также интервью с актерами, режиссером и съемочной группой.

Качество: HDTVRip
Формат: AVI
Видео кодек: XviD
Аудио кодек: AC3
Видео: 720x400 (1.80:1), 25 fps, XviD build 65 ~1605 kbps avg, 0.22 bit/pixel
Аудио#1: 48 kHz, AC3 Dolby Digital, 2/0 (L,R) ch, ~192.00 kbps avg
Релиз от: ruslanishe

General
Sozdavaya.Izumrudnii.gorod.XviD.2017.HDTVRip.R.G.Resident.avi
Format : AVI
Format/Info : Audio Video Interleave
File size : 550 MiB
Duration : 42mn 34s
Overall bit rate : 1 807 Kbps
Director : ruslanishe
Writing application : VirtualDubMod 1.5.10.3 | www.virtualdub-fr.org || (build 2550/release)
Copyright : R.G.Resident

Video
ID : 0
Format : MPEG-4 Visual
Format profile : Advanced Simple@L5
Format settings, BVOP : 2
Format settings, QPel : No
Format settings, GMC : No warppoints
Format settings, Matrix : Custom
Codec ID : XVID
Codec ID/Hint : XviD
Duration : 42mn 34s
Bit rate : 1 605 Kbps
Width : 720 pixels
Height : 400 pixels
Display aspect ratio : 16:9
Frame rate : 25.000 fps
Color space : YUV
Chroma subsampling : 4:2:0
Bit depth : 8 bits
Scan type : Progressive
Compression mode : Lossy
Bits/(Pixel*Frame) : 0.223
Stream size : 489 MiB (89%)
Writing library : XviD 65

Audio
ID : 1
Format : AC-3
Format/Info : Audio Coding 3
Mode extension : CM (complete main)
Format settings, Endianness : Big
Codec ID : 2000
Duration : 42mn 34s
Bit rate mode : Constant
Bit rate : 192 Kbps
Channel(s) : 2 channels
Channel positions : Front: L R
Sampling rate : 48.0 KHz
Bit depth : 16 bits
Compression mode : Lossy
Stream size : 58.5 MiB (11%)
Alignment : Split accross interleaves
Interleave, duration : 40 ms (1.00 video frame)
Interleave, preload duration : 500 ms

piratbit.org



Скачать
Чтобы иметь возможность скачивать с Торрент Трекера, нужно Зарегистрироваться

Как скачивать  ·  Рейтинг и ограничения

28-11-2019 20:33  

Отключить всю рекламу на сайте

    Дорогой пользователь! Огромная просьба, поблагодарите релизера, оцените раздачу и оставьте свои комментарий, если Вы скачали Создавая Изумрудный город через торрент бесплатно! Внесите свою лепту в развитие PiratBit!
    Комментировать посты могут только пользователи прошедшие не сложную регистрацию
    Показать сообщения:    

    Создавая Изумрудный город через торрент
    Скачать бесплатно Создавая Изумрудный город
    Создавая Изумрудный город скачать торрент
    Создавая Изумрудный город смотреть онлайн
    Cкачать фильм Создавая Изумрудный город бесплатно
    Создавая Изумрудный город скачать торрент в хорошем качестве
    Создавая Изумрудный город смотреть онлайн бесплатно в хорошем качестве


    Вы не можете начинать темы
    Вы не можете отвечать на сообщения
    Вы не можете редактировать свои сообщения
    Вы не можете удалять свои сообщения
    Вы не можете голосовать в опросах
    Вы не можете прикреплять файлы к сообщениям
    Вы не можете скачивать файлы