1 сезон

3 сезон

iTunes

1

iTunes

DUB Netflix

iTunes

13

1 сезон

RePack

30

Deluxe

pack

Легкие деньги

ВАЖНО

ИГРА 18+

pack

RePack

MK11

RePack

jed

RePack

fifa19

RePack

RDR2

RePack

NEED FOR SPEED™ PAYBACK

4 сезон

9 сезон

Бесстыжие 9 сезон

Все сериалы

все сериалы на PB.wtf

RePack

FAR CRY 5

Anonymous, доброй ночи, мы не успеваем до 1 числа собрать деньги на оплату серверов, помогите нам пожалуйста в это трудное время. В качестве благодарности мы отключим Вам всю рекламу на сайте (укажите свой ник в строку Ваше имя)!

×
  
Magnet ссылка

Союзники / Allied (Роберт Земекис) [2016, боевик, триллер, драма, мелодрама, военный, BDRip-AVC] DUB [Лицензия] от ExKinoRay piratbit.org

Союзники через торрент piratbit.org

Размер: 2.2 GB | Добавлен: 4 года 2 мес. назад | Торрент скачан:285 раз
Скачать  

15-02-2017 18:33 Союзники Скачать торрент  

Информация о фильме
Название: Союзники
Оригинальное название: Allied
Год выпуска: 2016
Страна: США, Великобритания
Студия: GK Films, Huahua Film & Media Culture, ImageMovers, Paramount Pictures
Жанр: Боевик, триллер, драма, мелодрама, военный
Продолжительность: 02:04:48
Перевод: Дубляж - [Лицензия]

Режиссер: Роберт Земекис
В ролях: Брэд Питт, Марион Котийяр, Лиззи Каплан, Аугуст Диль, Шарлотта Хоуп, Рэффи Кэссиди, Мэттью Гуд, Дэниэл Беттс, Саймон МакБерни, Джаред Харрис

Описание: 1942 год. Идет Вторая Мировая война. Разведчик Макс Ватан (Брэд Питт) отправляется на операцию в подчиненный себе нацистами Марокко, жаркую Касабланку в Северной Африке. Там он встречает и работает вместе с участницей сопротивления француженкой Марианн Бежур (Марион Котийяр). Между ними почти сразу же пробегает искра. Их чувствам суждено подвергнуться тысяче испытаний, главным из которых станет испытание правдой... Во что бы то ни стало, разведчику придется выяснить самый главный вопрос в своей жизни...

rating

Файл
Качество: BDRip (AVC)
Видео: MPEG-4 AVC, 1024x426 (2.40:1), 23.976 fps, ~1630 kbps avg, 0.156 bit/pixel
Аудио #1: 48 kHz, AC3 Dolby Digital, 5.1 ch, ~448 kbps - RUS
Аудио #2: 48 kHz, AC3 Dolby Digital, 5.1 ch, ~448 kbps - ENG
Субтитры: Русские (forced, full), aнглийские
General
Unique ID : 202684017926427473754891360982243822864 (0x987B859DAF331EB090092A638E714D10)
Complete name : D:\Allied.2016.D.BDRip.AVC.ExKinoRay.mkv
Format : Matroska
Format version : Version 2
File size : 2.20 GiB
Duration : 2 h 4 min
Overall bit rate : 2 528 kb/s
Movie name : Allied 2016 from ExKinoRay
Encoded date : UTC 2017-03-24 13:55:27
Writing application : mkvmerge v5.8.0 ('No Sleep / Pillow') built on Sep 2 2012 15:37:04
Writing library : libebml v1.2.3 + libmatroska v1.3.0

Video
ID : 1
Format : AVC
Format/Info : Advanced Video Codec
Format profile : High@L4.1
Format settings, CABAC : Yes
Format settings, ReFrames : 12 frames
Codec ID : V_MPEG4/ISO/AVC
Duration : 2 h 4 min
Bit rate : 1 630 kb/s
Width : 1 024 pixels
Height : 426 pixels
Display aspect ratio : 2.40:1
Frame rate mode : Constant
Frame rate : 23.976 (24000/1001) FPS
Color space : YUV
Chroma subsampling : 4:2:0
Bit depth : 8 bits
Scan type : Progressive
Bits/(Pixel*Frame) : 0.156
Stream size : 1.38 GiB (63%)
Title : Enigma
Writing library : x264 core 144 r2525 40bb568
Encoding settings : cabac=1 / ref=12 / deblock=1:-2:-2 / analyse=0x3:0x113 / me=umh / subme=10 / psy=1 / psy_rd=1.00:0.05 / mixed_ref=1 / me_range=32 / chroma_me=1 / trellis=2 / 8x8dct=1 / cqm=0 / deadzone=21,11 / fast_pskip=1 / chroma_qp_offset=-3 / threads=12 / lookahead_threads=3 / sliced_threads=0 / nr=0 / decimate=1 / interlaced=0 / bluray_compat=0 / constrained_intra=0 / bframes=10 / b_pyramid=2 / b_adapt=2 / b_bias=0 / direct=3 / weightb=1 / open_gop=0 / weightp=2 / keyint=240 / keyint_min=23 / scenecut=40 / intra_refresh=0 / rc_lookahead=40 / rc=2pass / mbtree=0 / bitrate=1630 / ratetol=1.0 / qcomp=0.60 / qpmin=0 / qpmax=51 / qpstep=4 / cplxblur=20.0 / qblur=0.5 / vbv_maxrate=50000 / vbv_bufsize=62500 / nal_hrd=none / filler=0 / ip_ratio=1.40 / pb_ratio=1.30 / aq=1:1.00
Language : English
Default : Yes
Forced : No
Color range : Limited
Color primaries : BT.709
Transfer characteristics : BT.709
Matrix coefficients : BT.709

Audio #1
ID : 2
Format : AC-3
Format/Info : Audio Coding 3
Mode extension : CM (complete main)
Format settings, Endianness : Big
Codec ID : A_AC3
Duration : 2 h 4 min
Bit rate mode : Constant
Bit rate : 448 kb/s
Channel(s) : 6 channels
Channel positions : Front: L C R, Side: L R, LFE
Sampling rate : 48.0 kHz
Frame rate : 31.250 FPS (1536 spf)
Bit depth : 16 bits
Compression mode : Lossy
Stream size : 399 MiB (18%)
Title : Dub (Лицензия)
Language : Russian
Default : Yes
Forced : No

Audio #2
ID : 3
Format : AC-3
Format/Info : Audio Coding 3
Mode extension : CM (complete main)
Format settings, Endianness : Big
Codec ID : A_AC3
Duration : 2 h 4 min
Bit rate mode : Constant
Bit rate : 448 kb/s
Channel(s) : 6 channels
Channel positions : Front: L C R, Side: L R, LFE
Sampling rate : 48.0 kHz
Frame rate : 31.250 FPS (1536 spf)
Bit depth : 16 bits
Compression mode : Lossy
Stream size : 399 MiB (18%)
Language : English
Default : No
Forced : No

Text #1
ID : 4
Format : UTF-8
Codec ID : S_TEXT/UTF8
Codec ID/Info : UTF-8 Plain Text
Title : Forced
Language : Russian
Default : Yes
Forced : No

Text #2
ID : 5
Format : UTF-8
Codec ID : S_TEXT/UTF8
Codec ID/Info : UTF-8 Plain Text
Language : Russian
Default : No
Forced : No

Text #3
ID : 6
Format : UTF-8
Codec ID : S_TEXT/UTF8
Codec ID/Info : UTF-8 Plain Text
Title : Forced
Language : English
Default : No
Forced : No

Text #4
ID : 7
Format : UTF-8
Codec ID : S_TEXT/UTF8
Codec ID/Info : UTF-8 Plain Text
Title : Full
Language : English
Default : No
Forced : No

Menu
00:00:00.000 : en:00:00:00.000
00:05:38.088 : en:00:05:38.088
00:16:39.749 : en:00:16:39.749
00:24:31.428 : en:00:24:31.428
00:33:52.280 : en:00:33:52.280
00:43:07.543 : en:00:43:07.543
00:49:14.118 : en:00:49:14.118
01:01:39.321 : en:01:01:39.321
01:09:36.339 : en:01:09:36.339
01:16:44.016 : en:01:16:44.016
01:26:14.961 : en:01:26:14.961
01:31:53.466 : en:01:31:53.466
01:40:12.173 : en:01:40:12.173
01:47:25.105 : en:01:47:25.105
01:56:35.614 : en:01:56:35.614
Релиз от:

Автор релиза:

Благодарность за постер VIRUSpiratbit.org



Скачать Союзники через торрент http://s019.radikal.ru/i603/1702/ca/582d916c2516.gif Скачать фильм Союзники через торрент бесплантно в хорошем качестве Описание: 1942 год. Идет Вторая Мировая война. Разведчик Макс Ватан (Брэд Питт) отправляется на операцию в подчиненный себе нацистами ... 9.6 10 27
Info! Золотая раздача, скачанное не засчитывается.
Торрент: Зарегистрирован [2017-03-24 14:25] · скачан: 285 раз
Статус: √ проверено
Размер: 2.2 GB
Как cкачать? Как скачать Союзники через торрент | UTorrent

28-11-2019 20:33  

Отключить всю рекламу на сайте

28-07-2017 17:28 Союзники Скачать торрент  

концовка неожиданная вообще, ну вообще, а так фильм стоит потраченного времени.piratbit.org



    Дорогой пользователь! Огромная просьба, поблагодарите релизера, оцените раздачу и оставьте свои комментарий, если Вы скачали Союзники через торрент бесплатно! Внесите свою лепту в развитие PiratBit!
    Комментировать посты могут только пользователи прошедшие не сложную регистрацию
    Показать сообщения:    

    Союзники через торрент
    Скачать бесплатно Союзники
    Союзники скачать торрент
    Союзники смотреть онлайн
    Cкачать фильм Союзники бесплатно
    Союзники скачать торрент в хорошем качестве
    Союзники смотреть онлайн бесплатно в хорошем качестве


    Вы не можете начинать темы
    Вы не можете отвечать на сообщения
    Вы не можете редактировать свои сообщения
    Вы не можете удалять свои сообщения
    Вы не можете голосовать в опросах
    Вы не можете прикреплять файлы к сообщениям
    Вы можете скачивать файлы