1 сезон

3 сезон

iTunes

1

iTunes

DUB Netflix

iTunes

13

1 сезон

RePack

30

Deluxe

pack

Легкие деньги

ВАЖНО

ИГРА 18+

pack

RePack

MK11

RePack

jed

RePack

fifa19

RePack

RDR2

RePack

NEED FOR SPEED™ PAYBACK

4 сезон

9 сезон

Бесстыжие 9 сезон

Все сериалы

все сериалы на PB.wtf

RePack

FAR CRY 5

Anonymous, доброй ночи, мы не успеваем до 1 числа собрать деньги на оплату серверов, помогите нам пожалуйста в это трудное время. В качестве благодарности мы отключим Вам всю рекламу на сайте (укажите свой ник в строку Ваше имя)!

×
  
Magnet ссылка

Доктор Стрэндж / Doctor Strange (Скотт Дерриксон) [2016, фантастика, фэнтези, боевик, HDRip-AVC] Дублированный [Лицензия] от ExKinoRay piratbit.org

Доктор Стрэндж через торрент piratbit.org

Размер: 2.07 GB | Добавлен: 4 года 3 мес. назад | Торрент скачан:184 раза
Скачать  

15-02-2017 20:09 Доктор Стрэндж Скачать торрент  

Информация о фильме
Название: Доктор Стрэндж
Оригинальное название: Doctor Strange
Год выпуска: 2016
Жанр: Фантастика, фэнтези, боевик, приключения
Выпущено: США, Marvel Studios Inc., Walt Disney Studios Motion Pictures
Режиссер: Скотт Дерриксон
В ролях: Бенедикт Камбербэтч, Тильда Суинтон, Мадс Миккельсен, Чиветел Эджиофор, Рэйчел МакАдамс, Бенедикт Вонг, Майкл Стулбарг, Бенджамин Брэтт, Скотт Эдкинс, Зара Питиан
Описание: Страшная автокатастрофа поставила крест на карьере успешного нейрохирурга Доктора Стрэнджа. Отчаявшись, он отправляется в путешествие в поисках исцеления и открывает в себе невероятные способности к трансформации пространства и времени. Теперь он — связующее звено между параллельными измерениями, а его миссия — защищать жителей Земли и противодействовать Злу, какое бы обличие оно ни принимало.

rating
Страна: США
Продолжительность: 01:54:58
Перевод: Дублированный [Лицензия]
Файл
Качество: HDRip (AVC)
Видео: MPEG-4 AVC, 1024x428 (2.40:1), 23.976 fps, ~1675 kbps avg, 0.159 bit/pixel
Аудио1: 48 kHz, AC3 Dolby Digital, 5.1 ch, ~448 kbps
Аудио #2: 48 kHz, AC3 Dolby Digital, 5.1 ch, ~448 kbps - ENG
Субтитры: Русские (форсированные + полные), английские (SDH + полные)
General
Unique ID : 245340476748301900790724545155949012768 (0xB892DB69334835AC977CFC876A2A2720)
Complete name : D:\Doctor.Strange.2016.D.HDRip.AVC.ExKinoRay.mkv
Format : Matroska
Format version : Version 4 / Version 2
File size : 2.07 GiB
Duration : 1 h 54 min
Overall bit rate : 2 573 kb/s
Movie name : Doctor Strange 2016 from ExKinoRay
Encoded date : UTC 2017-02-28 19:08:06
Writing application : mkvmerge v7.6.0 ('Garden of Dreams') 32bit built on Feb 11 2015 00:18:47
Writing library : libebml v1.3.1 + libmatroska v1.4.2

Video
ID : 1
Format : AVC
Format/Info : Advanced Video Codec
Format profile : High@L4.1
Format settings, CABAC : Yes
Format settings, ReFrames : 12 frames
Codec ID : V_MPEG4/ISO/AVC
Duration : 1 h 54 min
Bit rate : 1 675 kb/s
Width : 1 024 pixels
Height : 428 pixels
Display aspect ratio : 2.40:1
Frame rate mode : Constant
Frame rate : 23.976 (24000/1001) FPS
Color space : YUV
Chroma subsampling : 4:2:0
Bit depth : 8 bits
Scan type : Progressive
Bits/(Pixel*Frame) : 0.159
Stream size : 1.35 GiB (65%)
Title : Enigma
Writing library : x264 core 144 r2525 40bb568
Encoding settings : cabac=1 / ref=12 / deblock=1:-3:-3 / analyse=0x3:0x113 / me=umh / subme=10 / psy=1 / psy_rd=1.05:0.08 / mixed_ref=1 / me_range=32 / chroma_me=1 / trellis=2 / 8x8dct=1 / cqm=0 / deadzone=21,11 / fast_pskip=1 / chroma_qp_offset=-3 / threads=12 / lookahead_threads=3 / sliced_threads=0 / nr=0 / decimate=1 / interlaced=0 / bluray_compat=0 / constrained_intra=0 / bframes=10 / b_pyramid=2 / b_adapt=2 / b_bias=0 / direct=3 / weightb=1 / open_gop=0 / weightp=2 / keyint=240 / keyint_min=23 / scenecut=40 / intra_refresh=0 / rc_lookahead=40 / rc=2pass / mbtree=0 / bitrate=1675 / ratetol=1.0 / qcomp=0.60 / qpmin=0 / qpmax=51 / qpstep=4 / cplxblur=20.0 / qblur=0.5 / vbv_maxrate=50000 / vbv_bufsize=62500 / nal_hrd=none / filler=0 / ip_ratio=1.40 / pb_ratio=1.30 / aq=1:1.00
Language : English
Default : Yes
Forced : No
Color range : Limited
Color primaries : BT.709
Transfer characteristics : BT.709
Matrix coefficients : BT.709

Audio #1
ID : 2
Format : AC-3
Format/Info : Audio Coding 3
Mode extension : CM (complete main)
Format settings, Endianness : Big
Codec ID : A_AC3
Duration : 1 h 54 min
Bit rate mode : Constant
Bit rate : 448 kb/s
Channel(s) : 6 channels
Channel positions : Front: L C R, Side: L R, LFE
Sampling rate : 48.0 kHz
Frame rate : 31.250 FPS (1536 spf)
Bit depth : 16 bits
Compression mode : Lossy
Stream size : 368 MiB (17%)
Title : Dub (Лицензия)
Language : Russian
Default : Yes
Forced : No

Audio #2
ID : 3
Format : AC-3
Format/Info : Audio Coding 3
Mode extension : CM (complete main)
Format settings, Endianness : Big
Codec ID : A_AC3
Duration : 1 h 54 min
Bit rate mode : Constant
Bit rate : 448 kb/s
Channel(s) : 6 channels
Channel positions : Front: L C R, Side: L R, LFE
Sampling rate : 48.0 kHz
Frame rate : 31.250 FPS (1536 spf)
Bit depth : 16 bits
Compression mode : Lossy
Stream size : 368 MiB (17%)
Language : English
Default : No
Forced : No

Text #1
ID : 4
Format : UTF-8
Codec ID : S_TEXT/UTF8
Codec ID/Info : UTF-8 Plain Text
Duration : 1 h 33 min
Bit rate : 0 b/s
Count of elements : 3
Stream size : 86.0 Bytes (0%)
Title : Forced
Language : Russian
Default : Yes
Forced : No

Text #2
ID : 5
Format : UTF-8
Codec ID : S_TEXT/UTF8
Codec ID/Info : UTF-8 Plain Text
Duration : 1 h 52 min
Bit rate : 73 b/s
Count of elements : 1289
Stream size : 60.7 KiB (0%)
Title : Full
Language : Russian
Default : No
Forced : No

Text #3
ID : 6
Format : UTF-8
Codec ID : S_TEXT/UTF8
Codec ID/Info : UTF-8 Plain Text
Duration : 1 h 52 min
Bit rate : 43 b/s
Count of elements : 1319
Stream size : 36.1 KiB (0%)
Language : English
Default : No
Forced : No

Text #4
ID : 7
Format : UTF-8
Codec ID : S_TEXT/UTF8
Codec ID/Info : UTF-8 Plain Text
Duration : 1 h 54 min
Bit rate : 49 b/s
Count of elements : 1584
Stream size : 41.3 KiB (0%)
Title : SDH
Language : English
Default : No
Forced : No

Menu
00:00:00.000 : en:00:00:00.000
00:04:34.566 : en:00:04:34.566
00:10:16.825 : en:00:10:16.825
00:18:32.153 : en:00:18:32.153
00:24:37.017 : en:00:24:37.017
00:31:40.482 : en:00:31:40.482
00:38:33.811 : en:00:38:33.811
00:43:16.135 : en:00:43:16.135
00:48:24.527 : en:00:48:24.527
00:55:34.498 : en:00:55:34.498
01:05:04.359 : en:01:05:04.359
01:12:38.437 : en:01:12:38.437
01:22:14.346 : en:01:22:14.346
01:28:28.637 : en:01:28:28.637
01:35:00.904 : en:01:35:00.904
01:45:06.509 : en:01:45:06.509
Релиз от:

Автор релиза: piratbit.org



Скачать Доктор Стрэндж через торрент http://s017.radikal.ru/i407/1610/60/d9093e6dc3bd.jpg Скачать фильм Доктор Стрэндж через торрент бесплантно в хорошем качестве Описание: Страшная автокатастрофа поставила крест на карьере успешного нейрохирурга Доктора Стрэнджа. Отчаявшись, он отправляется в ... 9.5 10 12
Info! Золотая раздача, скачанное не засчитывается.
Торрент: Зарегистрирован [2017-02-28 19:22] · скачан: 184 раз
Статус: √ проверено
Размер: 2.07 GB
Как cкачать? Как скачать Доктор Стрэндж через торрент | UTorrent

% Раздел Тема Автор DL S | L
Фильмы (Blu-ray, BD-Remux, HDDVD) [ 26.49 GB ] Доктор Стрэндж / Doctor Strange [2016 BDRemux 1080p] от ExKinoRay / Russian Mafia Скачать
1 | 0


Последний раз редактировалось: Enigma2010 (2017-02-28 19:22), всего редактировалось 2 раз(а)

28-11-2019 20:33  

Отключить всю рекламу на сайте

15-02-2017 20:47 Доктор Стрэндж Скачать торрент  

зачем выкладывать HDRip если уже есть BDRip???piratbit.org



16-02-2017 10:48 Доктор Стрэндж Скачать торрент  

согласенpiratbit.org



    Дорогой пользователь! Огромная просьба, поблагодарите релизера, оцените раздачу и оставьте свои комментарий, если Вы скачали Доктор Стрэндж через торрент бесплатно! Внесите свою лепту в развитие PiratBit!
    Комментировать посты могут только пользователи прошедшие не сложную регистрацию
    Показать сообщения:    

    Доктор Стрэндж через торрент
    Скачать бесплатно Доктор Стрэндж
    Доктор Стрэндж скачать торрент
    Доктор Стрэндж смотреть онлайн
    Cкачать фильм Доктор Стрэндж бесплатно
    Доктор Стрэндж скачать торрент в хорошем качестве
    Доктор Стрэндж смотреть онлайн бесплатно в хорошем качестве


    Вы не можете начинать темы
    Вы не можете отвечать на сообщения
    Вы не можете редактировать свои сообщения
    Вы не можете удалять свои сообщения
    Вы не можете голосовать в опросах
    Вы не можете прикреплять файлы к сообщениям
    Вы можете скачивать файлы