Доктор Стрэндж

Лицензия

Добыча

MVO

Дом дракона

1 сезон

Тор

Лицензия

Мэверик

Лицензия

Там, где раки поют

MVO

Властелин колец

1 сезон

Ultimate

pack

Рекомендуем

30

Repack

ВАЖНО

ВАЖНО

Ghostwire

RePack

jed

RePack

nioh2

RePack

RDR2

RePack

NEED FOR SPEED™ PAYBACK

RePack

скачать торрент

Кинопоиск HD

Острые козырьки 6 сезон

6 сезон

FAR CRY 6

RePack

скачать торрент

Лицензия

скачать торрент

MVO

1

1 сезон

скачать торрент

1 сезон

скачать торрент

Лицензия

  

Правда (Виктор Добровольский, Исаак Шмарук) [1957, СССР, драма, история, VHSRip от AVP Studio]

Правда через торрент piratbit.org

Размер: 1.09 GB | Добавлен: 5 лет 7 мес. назад | Торрент скачан:6 раз
Смотреть онлайн Правда | Скачать   

16-02-2017 09:26 Правда Скачать торрент  

Правда
Страна: СССР
Производство: киностудия им. Довженко

Жанр: драма, история
Год выпуска: 1957
Продолжительность: 01:23:48

Перевод: Не требуется
Cубтитры: нет
Оригинальная аудиодорожка: русский

Режиссер: Виктор Добровольский, Исаак Шмарук

В ролях:
Михаил Егоров, Павел Киянский, Нина Кукушкина, Глеб Юченков, Александр Ануров, Анатолий Каневский, Яков Козлов, Андро Кобаладзе, Юрий Мажуга, Николай Дупак, Михаил Пуговкин, Леонид Жуковский, Валентин Черняк, Виктор Добровольский, Александр Дубов, Сергей Петров, Георгий Бабенко, Юрий Лавров, Ярослав Геляс, Фёдор Ищенко, Евгений Балиев, Лаврентий Масоха...
Полный список актёров

Описание:
Экранизация одноименной пьесы Александра Корнейчука.
Февральская революцию не принесла на фронт мира. На склонах Карпат продолжают гибнуть солдаты, обманутые правительством Керенского. Некоторые фронтовики покидают окопы и отправляются домой. В их числе и Тарас Голота. В родном селе он попадает на похороны матери, убитой гайдамаками. Голота поднимает односельчан на раздел помещичьей земли. Гетманскими властями он арестован и посажен в тюрьму. Однако Тарасу удается бежать. В дороге он встречает большевика Рыжова и его дочь Наташу, которые едут на Украину по заданию Ленина. Они помогают Голоте разобраться в ситуации. Тарас возвращается домой с желанием бороться с угнетателями народа.

Источник: VHS
Качество видео: VHSRip
Формат видео: AVI

Видео: 688x512 (4:3), 25,000 кадров/сек, XviD ~ 1661 kbps avg, 0.189 bit/pixel
Аудио: 48 kHz, Dolby Digital AC3 2.0, 192 kbps

Раздача от:
Общее
Полное имя : Pravda.1957.VHSRip_[New-team]_by_AVP_Studio.avi
Формат : AVI
Формат/Информация : Audio Video Interleave
Размер файла : 1,09 Гбайт
Продолжительность : 1 ч. 23 м.
Общий поток : 1863 Кбит/сек
Программа кодирования : VirtualDubMod 1.5.10.3 | www.virtualdub-fr.org || (build 2550/release)
Библиотека кодирования : VirtualDubMod build 2550/release

Видео
Идентификатор : 0
Формат : MPEG-4 Visual
Профиль формата : Advanced Simple@L5
Параметр BVOP формата : 1
Параметр QPel формата : Нет
Параметр GMC формата : Без точки перехода
Параметр матрицы формата : Выборочная
Идентификатор кодека : XVID
Идентификатор кодека/Подсказка : XviD
Продолжительность : 1 ч. 23 м.
Битрейт : 1661 Кбит/сек
Ширина : 688 пикселей
Высота : 512 пикселей
Соотношение сторон : 4:3
Частота кадров : 25,000 кадров/сек
Цветовое пространство : YUV
Субдискретизация насыщенности : 4:2:0
Битовая глубина : 8 бит
Тип развёртки : Прогрессивная
Метод сжатия : С потерями
Бит/(Пиксели*Кадры) : 0.189
Размер потока : 995 Мбайт (89%)
Библиотека кодирования : XviD 73

Аудио
Идентификатор : 1
Формат : AC-3
Формат/Информация : Audio Coding 3
Расширение режима : CM (complete main)
Параметр Endianness формата : Big
Идентификатор кодека : 2000
Продолжительность : 1 ч. 23 м.
Вид битрейта : Постоянный
Битрейт : 192 Кбит/сек
Каналы : 2 канала
Расположение каналов : Front: L R
Частота : 48,0 КГц
Частота кадров : 31,250 кадров/сек (1536 spf)
Битовая глубина : 16 бит
Метод сжатия : С потерями
Размер потока : 115 Мбайт (10%)
Выравнивание : Разделение по промежуткам
Продолжительность промежутка : 40 мс. (1,00 видеокадр)
Время предзагрузки промежутка : 500 мс



Скачать Правда через торрент http://s018.radikal.ru/i523/1702/6a/bbbc632e88a1.png Скачать, смотреть онлайн Правда бесплантно в хорошем качестве Описание:Экранизация одноименной пьесы Александра Корнейчука.Февральская революцию не принесла на фронт мира. На склонах Карпат продолжают ... 5 10 1
Info! Золотая раздача, скачанное не засчитывается.
Торрент: Зарегистрирован [2017-02-16 09:26] · скачан: 6 раз
Статус: √ проверено
Размер: 1.09 GB
Как cкачать? Как скачать Правда через торрент | UTorrent

% Раздел Тема Автор DL S | L
Кино СССР [ 1.09 GB ] Правда | | Правда (Виктор Добровольский, Исаак Шмарук AVP Studio Скачать
1 | 0

28-11-2019 20:33  

Отключить вcю реклaмy на сайте

    Дорогой пользователь! Огромная просьба, поблагодарите релизера, оцените раздачу и оставьте свои комментарий, если Вы скачали Правда через торрент бесплатно!!
    Комментировать посты могут только пользователи прошедшие не сложную регистрацию
    Показать сообщения:    


    Правда через торрент
    Скачать бесплатно Правда
    Правда скачать торрент
    Правда смотреть онлайн
    Cкачать фильм Правда бесплатно
    Правда скачать торрент в хорошем качестве
    Правда смотреть онлайн бесплатно в хорошем качестве
    Вы не можете начинать темы
    Вы не можете отвечать на сообщения
    Вы не можете редактировать свои сообщения
    Вы не можете удалять свои сообщения
    Вы не можете голосовать в опросах
    Вы не можете прикреплять файлы к сообщениям
    Вы можете скачивать файлы