1 сезон

3 сезон

iTunes

1

iTunes

DUB Netflix

iTunes

13

1 сезон

RePack

30

Deluxe

pack

Легкие деньги

ВАЖНО

ИГРА 18+

pack

RePack

MK11

RePack

jed

RePack

fifa19

RePack

RDR2

RePack

NEED FOR SPEED™ PAYBACK

4 сезон

9 сезон

Бесстыжие 9 сезон

Все сериалы

все сериалы на PB.wtf

RePack

FAR CRY 5

Anonymous, добрый день, мы не успеваем до 1 числа собрать деньги на оплату серверов, помогите нам пожалуйста в это трудное время. В качестве благодарности мы отключим Вам всю рекламу на сайте (укажите свой ник в строку Ваше имя)!

×
  
Magnet ссылка

Голос монстра / A Monster Calls (Хуан Антонио Байона) [2016, фэнтези, драма, BDRip-AVC] Дубляж - [Лицензия] от ExKinoRay piratbit.org

Голос монстра через торрент piratbit.org

Размер: 1.97 GB | Добавлен: 3 года 7 мес. назад | Торрент скачан:225 раз
Скачать  

19-02-2017 06:25 Голос монстра Скачать торрент  

Информация о фильме
Название: Голос монстра
Оригинальное название: A Monster Calls
Год выхода: 2016
Страна: США, Испания
Студия: Apaches Entertainment, La Trini, Monster Calls, A, Participant Media, River Road Entertainment
Жанр: Фэнтези, драма
Продолжительность: 01:48:25
Перевод: Дублированный | Лицензия
Субтитры: Русские, английские
Режиссер: Хуан Антонио Байона
В ролях: Льюис МакДугалл, Сигурни Уивер, Фелисити Джонс, Тоби Кеббелл, Бен Моор, Джеймс Мелвилл, Оливер Стир, Доминик Бойл, Дженнифер Лим, Макс Габбей
Описание: Поражающая воображение история о мальчике Конноре и монстре из его снов. Когда Коннору особенно тяжело, происходит нечто невероятное — старое тисовое дерево за окном оживает и превращается в громадное чудовище. По ночам монстр рассказывает Коннору истории, которые помогут ему понять, что даже когда весь мир рушится, можно найти в себе силы и не отчаиваться.

rating
Файл
Формат: MKV
Качество: BDRip (AVC)
Видео: MPEG-4 AVC, 1024x428 (2.40:1), 23.976 fps, ~1710 kbps avg, 0.163 bit/pixel
Аудио1: 48 kHz, AC3 Dolby Digital, 3/2 (L,C,R,l,r) + LFE ch, ~448 kbps - Rus
Аудио2: 48 kHz, AC3 Dolby Digital, 3/2 (L,C,R,l,r) + LFE ch, ~448 kbps - Английский
General
Unique ID : 214407078533101258738533338540338191581 (0xA14D4D20EB2BCF408867AA1B9A6A1CDD)
Complete name : D:\A Monster Calls.2016.D.BDRip.AVC.ExKinoRay.mkv
Format : Matroska
Format version : Version 2
File size : 1.97 GiB
Duration : 1 h 48 min
Overall bit rate : 2 602 kb/s
Movie name : A Monster Calls (2016) from ExKinoRay
Encoded date : UTC 2017-11-12 03:11:23
Writing application : mkvmerge v5.6.0 ('Kenya Kane') built on May 27 2012 16:44:04
Writing library : libebml v1.2.3 + libmatroska v1.3.0

Video
ID : 1
Format : AVC
Format/Info : Advanced Video Codec
Format profile : High@L4.1
Format settings, CABAC : Yes
Format settings, ReFrames : 13 frames
Codec ID : V_MPEG4/ISO/AVC
Duration : 1 h 48 min
Bit rate : 1 710 kb/s
Width : 1 024 pixels
Height : 428 pixels
Display aspect ratio : 2.40:1
Frame rate mode : Constant
Frame rate : 23.976 (24000/1001) FPS
Color space : YUV
Chroma subsampling : 4:2:0
Bit depth : 8 bits
Scan type : Progressive
Bits/(Pixel*Frame) : 0.163
Stream size : 1.25 GiB (64%)
Title : Enigma
Writing library : x264 core 144 r2525 40bb568
Encoding settings : cabac=1 / ref=13 / deblock=1:-2:-2 / analyse=0x3:0x113 / me=umh / subme=10 / psy=1 / psy_rd=1.05:0.09 / mixed_ref=1 / me_range=32 / chroma_me=1 / trellis=2 / 8x8dct=1 / cqm=0 / deadzone=21,11 / fast_pskip=1 / chroma_qp_offset=-3 / threads=12 / lookahead_threads=2 / sliced_threads=0 / nr=0 / decimate=1 / interlaced=0 / bluray_compat=0 / constrained_intra=0 / bframes=9 / b_pyramid=2 / b_adapt=2 / b_bias=0 / direct=3 / weightb=1 / open_gop=0 / weightp=2 / keyint=240 / keyint_min=23 / scenecut=40 / intra_refresh=0 / rc_lookahead=40 / rc=2pass / mbtree=0 / bitrate=1710 / ratetol=1.0 / qcomp=0.60 / qpmin=0 / qpmax=51 / qpstep=4 / cplxblur=20.0 / qblur=0.5 / vbv_maxrate=50000 / vbv_bufsize=62500 / nal_hrd=none / filler=0 / ip_ratio=1.40 / pb_ratio=1.30 / aq=1:1.00
Language : English
Default : Yes
Forced : No
Color range : Limited
Color primaries : BT.709
Transfer characteristics : BT.709
Matrix coefficients : BT.709
Statistics Tags Issue : mkvmerge v7.6.0 ('Garden of Dreams') 32bit built on Feb 11 2015 00:18:47 2017-02-19 00:01:08 / mkvmerge v5.6.0 ('Kenya Kane') built on May 27 2012 16:44:04 2017-11-12 03:11:23
FromStats_BitRate : 1703786
FromStats_Duration : 01:48:25.583000000
FromStats_FrameCount : 155978
FromStats_StreamSize : 1385515194

Audio #1
ID : 2
Format : AC-3
Format/Info : Audio Coding 3
Mode extension : CM (complete main)
Format settings, Endianness : Big
Codec ID : A_AC3
Duration : 1 h 48 min
Bit rate mode : Constant
Bit rate : 448 kb/s
Channel(s) : 6 channels
Channel positions : Front: L C R, Side: L R, LFE
Sampling rate : 48.0 kHz
Frame rate : 31.250 FPS (1536 spf)
Compression mode : Lossy
Stream size : 347 MiB (17%)
Title : Dub (Blu-Ray RUS)
Language : Russian
Default : Yes
Forced : No

Audio #2
ID : 3
Format : AC-3
Format/Info : Audio Coding 3
Mode extension : CM (complete main)
Format settings, Endianness : Big
Codec ID : A_AC3
Duration : 1 h 48 min
Bit rate mode : Constant
Bit rate : 448 kb/s
Channel(s) : 6 channels
Channel positions : Front: L C R, Side: L R, LFE
Sampling rate : 48.0 kHz
Frame rate : 31.250 FPS (1536 spf)
Compression mode : Lossy
Stream size : 347 MiB (17%)
Language : English
Default : No
Forced : No
Statistics Tags Issue : mkvmerge v7.6.0 ('Garden of Dreams') 32bit built on Feb 11 2015 00:18:47 2017-02-19 00:01:08 / mkvmerge v5.6.0 ('Kenya Kane') built on May 27 2012 16:44:04 2017-11-12 03:11:23
FromStats_BitRate : 448000
FromStats_Duration : 01:48:25.600000000
FromStats_FrameCount : 203300
FromStats_StreamSize : 364313600

Text #1
ID : 4
Format : UTF-8
Codec ID : S_TEXT/UTF8
Codec ID/Info : UTF-8 Plain Text
Language : Russian
Default : No
Forced : No

Text #2
ID : 5
Format : UTF-8
Codec ID : S_TEXT/UTF8
Codec ID/Info : UTF-8 Plain Text
Language : English
Default : No
Forced : No
Statistics Tags Issue : mkvmerge v7.6.0 ('Garden of Dreams') 32bit built on Feb 11 2015 00:18:47 2017-02-19 00:01:08 / mkvmerge v5.6.0 ('Kenya Kane') built on May 27 2012 16:44:04 2017-11-12 03:11:23
FromStats_BitRate : 38
FromStats_Duration : 01:38:55.512000000
FromStats_FrameCount : 926
FromStats_StreamSize : 28900

Menu
00:00:00.000 : es:Chapter 01
00:08:12.617 : es:Chapter 02
00:15:35.517 : es:Chapter 03
00:24:41.313 : es:Chapter 04
00:31:50.575 : es:Chapter 05
00:38:50.619 : es:Chapter 06
00:50:10.966 : es:Chapter 07
00:55:48.678 : es:Chapter 08
01:03:51.369 : es:Chapter 09
01:13:11.678 : es:Chapter 10
01:19:19.254 : es:Chapter 11
01:28:52.285 : es:Chapter 12
01:40:35.654 : es:Chapter 13

Релиз от:

Автор релиза:

piratbit.org



Скачать Голос монстра через торрент http://i91.fastpic.ru/big/2017/0210/cd/092dd1dc5964a7785cedcd82a6dcc4cd.jpg Скачать фильм Голос монстра через торрент бесплантно в хорошем качестве Описание: Поражающая воображение история о мальчике Конноре и монстре из его снов. Когда Коннору особенно тяжело, происходит нечто ... 8.8 10 25
Info! Золотая раздача, скачанное не засчитывается.
Торрент: Зарегистрирован [2017-11-12 05:13] · скачан: 225 раз
Статус: √ проверено
Размер: 1.97 GB
Как cкачать? Как скачать Голос монстра через торрент | UTorrent



Последний раз редактировалось: Enigma2010 (2017-11-12 05:30), всего редактировалось 7 раз(а)

28-11-2019 20:33  

Отключить всю рекламу на сайте

20-02-2017 20:18 Голос монстра Скачать торрент  

Такого уродливого мальчика я ещё не видел. Думал их в роддоме усыпляют.piratbit.org



21-02-2017 21:08 Голос монстра Скачать торрент  

korotkij писал(а):

Такого уродливого мальчика я ещё не видел. Думал их в роддоме усыпляют.

А ты видимо Киану Ривз!? Писанный красавец!? Фильм как??piratbit.org



22-02-2017 18:28 Голос монстра Скачать торрент  

BOBAH, фильм норм.piratbit.org



08-03-2017 10:58 Голос монстра Скачать торрент  

фильм фигня больше 30 минут неосилил но сам монстр выглядит неплохо атак восновном одни разговорыpiratbit.org



21-04-2017 11:49 Голос монстра Скачать торрент  

фильм отличный!!! сначало скучноват - мин 30, но ... дальше - глубокий смысл! поверте, досмотрев до конца, этот фильм не оставит равнодушным никого.
Советую! Фильм отличный! piratbit.org



12-11-2017 05:13 Голос монстра Скачать торрент  

Замена на лицензию.piratbit.org



12-11-2017 07:28 Голос монстра Скачать торрент  

нормально зашёл ... пересматривать неохото, но смотрелся нормpiratbit.org



14-11-2017 07:20 Голос монстра Скачать торрент  

скажу банальность, но.. книга лучшеpiratbit.org



26-11-2017 18:15 Голос монстра Скачать торрент  

клюв писал(а):

фильм фигня больше 30 минут неосилил но сам монстр выглядит неплохо атак восновном одни разговоры

Дело вкуса, а скорей возраста. Я бы до 25 годков и 10 минут не потратил, нужна была малословная динамика в любых направлениях и позах. А щас ничего заходят такие вещи, хоть я и не фанат данного жанра. А парень, пусть и не красавец, но сыграл здорово именно то что нужно было режиссеру.piratbit.org



07-02-2018 15:17 Голос монстра Скачать торрент  

парня подбирали не по морде лица, а по сходной трагичной истории с ггpiratbit.org



    Дорогой пользователь! Огромная просьба, поблагодарите релизера, оцените раздачу и оставьте свои комментарий, если Вы скачали Голос монстра через торрент бесплатно! Внесите свою лепту в развитие PiratBit!
    Комментировать посты могут только пользователи прошедшие не сложную регистрацию
    Показать сообщения:    

    Голос монстра через торрент
    Скачать бесплатно Голос монстра
    Голос монстра скачать торрент
    Голос монстра смотреть онлайн
    Cкачать фильм Голос монстра бесплатно
    Голос монстра скачать торрент в хорошем качестве
    Голос монстра смотреть онлайн бесплатно в хорошем качестве


    Вы не можете начинать темы
    Вы не можете отвечать на сообщения
    Вы не можете редактировать свои сообщения
    Вы не можете удалять свои сообщения
    Вы не можете голосовать в опросах
    Вы не можете прикреплять файлы к сообщениям
    Вы можете скачивать файлы