Доктор Стрэндж

Лицензия

Добыча

MVO

Дом дракона

1 сезон

Тор

Лицензия

Мэверик

Лицензия

Там, где раки поют

MVO

Властелин колец

1 сезон

Ultimate

pack

Рекомендуем

30

Repack

ВАЖНО

ВАЖНО

Ghostwire

RePack

jed

RePack

nioh2

RePack

RDR2

RePack

NEED FOR SPEED™ PAYBACK

RePack

скачать торрент

Кинопоиск HD

Острые козырьки 6 сезон

6 сезон

FAR CRY 6

RePack

скачать торрент

Лицензия

скачать торрент

MVO

1

1 сезон

скачать торрент

1 сезон

скачать торрент

Лицензия

  

Шторм (Михаил Дубсон) [1957, СССР, драма, история, DVDRip от AVP Studio]

Шторм через торрент piratbit.org

Размер: 1.09 GB | Добавлен: 5 лет 7 мес. назад | Торрент скачан:5 раз
Смотреть онлайн Шторм | Скачать   

19-02-2017 08:40 Шторм Скачать торрент  

Шторм
Страна: СССР
Производство: Ленфильм

Жанр: драма, история
Год выпуска: 1957
Продолжительность: 01:35:33

Перевод: Не требуется
Cубтитры: нет
Оригинальная аудиодорожка: русский

Режиссер: Михаил Дубсон

В ролях:
Всеволод Сафонов, Давид Волосов, Эмма Попова, Евгений Лебедев, Николай Граббе, Иннокентий Смоктуновский, Сергей Филиппов, Георгий Юматов, Софья Пилявская, Лидия Сухаревская, Иван Коваль-Самборский, Пётр Савин...
Об актёрах подробней

Описание:
По одноименной пьесе Владимира Билль-Белоцерковского..
Действие фильма происходит зимой 1918 года в одном из уездных городов России. В городе царят голод и холод. Нет хлеба и продовольствия, не хватает дров и медикаментов. Уездный Совет не в состоянии обеспечить население самым необходимым. Продотряд, посланный в деревню, разгромлен кулаками. В расквартированном в городе красноармейском полку зреет недовольство, подогреваемое командирами, бывшими царскими офицерами, которые готовят контрреволюционный мятеж. В такой сложной обстановке председатель Совета Бурмин (Всеволод Сафонов), комиссары Раевич и Лащилин, поддерживаемые партийным и комсомольским активом, сумели переломить ситуацию. Заговорщики арестованы, кулацкое выступление подавлено. Полк, сохранивший верность Советской власти, отправляется на борьбу с Колчаком.

Источник: DVD5 R5
Качество видео: DVDRip
Формат видео: AVI

Видео: 688x512 (4:3), 25 fps, XviD ~ 1432 kbps avg, 0.163 bit/pixel
Аудио: 48 kHz, Dolby Digital AC3 2.0, 192 kbps

Раздача от:
Общее
Полное имя : Shtorm.1957.DVDRip_[New-team]_by_AVP_Studio.avi
Формат : AVI
Формат/Информация : Audio Video Interleave
Размер файла : 1,09 Гбайт
Продолжительность : 1 ч. 35 м.
Общий поток : 1634 Кбит/сек
Программа кодирования : VirtualDubMod 1.5.10.3 | www.virtualdub-fr.org || (build 2550/release)
Библиотека кодирования : VirtualDubMod build 2550/release

Видео
Идентификатор : 0
Формат : MPEG-4 Visual
Профиль формата : Advanced Simple@L5
Параметр BVOP формата : 1
Параметр QPel формата : Нет
Параметр GMC формата : Без точки перехода
Параметр матрицы формата : Выборочная
Идентификатор кодека : XVID
Идентификатор кодека/Подсказка : XviD
Продолжительность : 1 ч. 35 м.
Битрейт : 1432 Кбит/сек
Ширина : 688 пикселей
Высота : 512 пикселей
Соотношение сторон : 4:3
Частота кадров : 25,000 кадров/сек
Цветовое пространство : YUV
Субдискретизация насыщенности : 4:2:0
Битовая глубина : 8 бит
Тип развёртки : Прогрессивная
Метод сжатия : С потерями
Бит/(Пиксели*Кадры) : 0.163
Размер потока : 979 Мбайт (88%)
Библиотека кодирования : XviD 73

Аудио
Идентификатор : 1
Формат : AC-3
Формат/Информация : Audio Coding 3
Расширение режима : CM (complete main)
Параметр Endianness формата : Big
Идентификатор кодека : 2000
Продолжительность : 1 ч. 35 м.
Вид битрейта : Постоянный
Битрейт : 192 Кбит/сек
Каналы : 2 канала
Расположение каналов : Front: L R
Частота : 48,0 КГц
Частота кадров : 31,250 кадров/сек (1536 spf)
Битовая глубина : 16 бит
Метод сжатия : С потерями
Размер потока : 131 Мбайт (12%)
Выравнивание : Разделение по промежуткам
Продолжительность промежутка : 40 мс. (1,00 видеокадр)
Время предзагрузки промежутка : 500 мс



Скачать Шторм через торрент http://i90.fastpic.ru/big/2017/0218/c3/3ccc0b32206836a0dd9c4741f3669bc3.png Скачать, смотреть онлайн Шторм бесплантно в хорошем качестве Описание:По одноименной пьесе Владимира Билль-Белоцерковского..Действие фильма происходит зимой 1918 года в одном из уездных городов ... 10 10 2
Info! Золотая раздача, скачанное не засчитывается.
Торрент: Зарегистрирован [2017-02-19 08:40] · скачан: 5 раз
Статус: √ проверено
Размер: 1.09 GB
Как cкачать? Как скачать Шторм через торрент | UTorrent

% Раздел Тема Автор DL S | L
Кино СССР [ 1.09 GB ] Шторм | | DVDRip-AVC от AVP Studio AVP Studio Скачать
1 | 0
Кино СССР [ 745 MB ] Шторм | | DVDRip от AVP Studio AVP Studio Скачать
1 | 0

28-11-2019 20:33  

Отключить вcю реклaмy на сайте

    Дорогой пользователь! Огромная просьба, поблагодарите релизера, оцените раздачу и оставьте свои комментарий, если Вы скачали Шторм через торрент бесплатно!!
    Комментировать посты могут только пользователи прошедшие не сложную регистрацию
    Показать сообщения:    


    Шторм через торрент
    Скачать бесплатно Шторм
    Шторм скачать торрент
    Шторм смотреть онлайн
    Cкачать фильм Шторм бесплатно
    Шторм скачать торрент в хорошем качестве
    Шторм смотреть онлайн бесплатно в хорошем качестве
    Вы не можете начинать темы
    Вы не можете отвечать на сообщения
    Вы не можете редактировать свои сообщения
    Вы не можете удалять свои сообщения
    Вы не можете голосовать в опросах
    Вы не можете прикреплять файлы к сообщениям
    Вы можете скачивать файлы